<?xml version="1.0" standalone="no"?>
<!DOCTYPE svg PUBLIC "-//W3C//DTD SVG 1.1//EN" "http://www.w3.org/Graphics/SVG/1.1/DTD/svg11.dtd" >
<!--
2020-11-26: Created with FontForge (http://fontforge.org)
-->
<svg xmlns="http://www.w3.org/2000/svg" xmlns:xlink="http://www.w3.org/1999/xlink" version="1.1">
<metadata>
Created by FontForge 20170731 at Thu Nov 26 19:19:45 2020
 By root

</metadata>
<defs>
<font id="Flaticon" horiz-adv-x="512" >
  <font-face 
    font-family="Flaticon"
    font-weight="400"
    font-stretch="normal"
    units-per-em="512"
    panose-1="2 0 5 3 0 0 0 0 0 0"
    ascent="448"
    descent="-64"
    bbox="-0.00122273 -64.0801 512.016 448.001"
    underline-thickness="25.6"
    underline-position="-51.2"
    unicode-range="U+0020-F14A"
  />
    <missing-glyph />
    <glyph glyph-name="space" unicode=" " horiz-adv-x="200" 
 />
    <glyph glyph-name="044-pie-chart-1" unicode="&#xf11c;" 
d="M198.4 124.8c-4.2666 0 -7.4668 2.13379 -9.60059 5.33398l-92.7998 160c0 2.13281 -1.06641 4.2666 0 7.46582c1.06641 3.2002 2.13379 5.33398 5.33301 6.40039c29.8672 17.0664 62.9336 26.667 97.0674 26.667c34.1328 0 68.2666 -8.5332 98.1328 -26.667
c2.13379 -1.06641 4.2666 -4.2666 5.33301 -6.40039c1.06738 -3.19922 0 -5.33301 -1.06641 -8.5332l-92.7998 -160c-2.13379 -3.2002 -5.33301 -4.2666 -9.59961 -4.2666zM121.6 291.2l77.8672 -134.4l77.8662 134.4c-49.0664 23.4668 -107.733 23.4668 -155.733 0z
M199.467 -60.7998c-69.333 0 -134.4 37.333 -169.601 98.1328c-25.5996 44.8008 -33.0664 98.1338 -19.1992 148.267c13.8662 50.1338 45.8662 92.8008 90.666 118.4c5.33398 3.2002 11.7334 1.06641 14.9336 -4.2666l86.4004 -150.4l150.399 87.4668
c5.33398 3.2002 11.7334 1.06641 14.9336 -4.2666c25.5996 -44.7998 33.0664 -98.1328 19.2002 -148.267c-13.8672 -50.1328 -45.8672 -92.7998 -90.667 -118.4c-29.8662 -17.0664 -62.9336 -26.666 -97.0664 -26.666zM102.4 280.533
c-35.2002 -23.4668 -60.8008 -58.667 -71.4668 -100.267c-11.7334 -44.7998 -5.33398 -91.7334 17.0664 -132.267c30.9336 -53.333 88.5332 -87.4668 150.4 -87.4668c29.8662 0 60.7998 8.5332 86.3994 23.4668c40.5332 23.4668 69.334 60.7998 81.0664 105.6
c10.667 41.6006 6.40039 84.2666 -12.7998 122.667l-150.399 -86.4004c-5.33398 -3.19922 -11.7334 -1.06641 -14.9336 4.26758zM305.066 241.066l117.334 203.733l9.59961 -5.33301c29.8662 -17.0664 54.4004 -41.6006 71.4668 -71.4668l5.33301 -9.59961zM429.866 414.934
l-66.1328 -116.267l116.267 67.1992c-13.8662 19.2002 -29.8662 36.2676 -50.1338 49.0674z" />
    <glyph glyph-name="022-phone-call" unicode="&#xf109;" 
d="M498.064 72.2432c17.8643 -17.8623 17.8643 -48.4844 0 -68.8984l-48.4844 -48.4854c-51.0371 -51.0371 -186.283 5.10352 -306.22 125.04c-119.936 119.936 -173.523 255.183 -125.039 306.219l48.4844 48.4844c17.8633 17.8633 48.4854 17.8633 68.8994 0
l71.4512 -71.4512c25.5186 -25.5176 15.3115 -68.8984 -17.8623 -79.1064c-22.9668 -7.6543 -38.2773 -33.1729 -30.6221 -56.1396c12.7588 -53.5889 81.6582 -119.937 132.695 -132.695c22.9658 -5.10449 48.4844 7.6543 56.1396 30.6221
c10.207 33.1729 53.5889 43.3809 79.1064 17.8623z" />
    <glyph glyph-name="102-caduceus-medical-symbol-of-two-ascending-serpents-on-a-cane-with-wings" unicode="&#xf140;" 
d="M351.248 324.463h143.061c6.31445 0 12.1797 -3.37402 15.3457 -8.85352c3.14941 -5.47949 3.14941 -12.2285 0 -17.708c-8.91895 -15.4258 -21.5322 -28.3291 -36.7334 -37.5371l-103.307 -62.6035c2.74805 4.80469 4.93359 9.70508 6.50781 14.4941
c3.72852 12.1152 3.71191 18.334 3.98535 28.458c0.144531 17.499 -8.22754 30.5947 -18.335 36.2832c-16.6152 9.31934 -37.6328 3.42285 -46.9209 -13.1445l-10.9268 -19.4268c-0.0800781 0.0800781 -17.0967 -13.3213 -47.8848 -23.1074
c-28.1846 7.68066 -47.5479 23.1875 -47.6758 23.1074l-11.0234 19.6035c-5.33496 9.38379 -15.0244 16.1006 -26.5938 17.2422c-18.8965 1.83105 -37.9062 -11.248 -38.501 -40.542c-0.353516 -6.2832 0.224609 -16.374 4.00098 -28.4902
c1.5752 -4.93262 3.85645 -9.97852 6.68457 -14.8633l-103.836 62.9893c-15.2012 9.22363 -27.8311 22.127 -36.7178 37.5371c-3.16504 5.47949 -3.16504 12.2285 -0.015625 17.708c3.16504 5.47949 9.01465 8.85352 15.3457 8.85352h142.498
c24.9863 0 47.7402 -14.3496 58.5059 -36.8779l7.61719 -15.9238v21.9014c0 16.8887 -5.07812 33.4072 -14.5098 47.4189c-5.56055 8.25977 -8.9834 18.2061 -8.9834 28.8916c0 28.6348 23.4131 51.8545 52.0791 51.8545c28.667 0 51.8223 -23.2197 51.8223 -51.8545
c0 -11.0225 -3.4873 -21.2266 -9.38379 -29.6309c-10.1074 -14.3652 -15.5068 -31.3174 -15.5068 -48.8809v-26.0479l11.2324 22.8984c10.8945 22.207 33.4551 36.251 58.1689 36.251zM256.185 104.449c-2.42578 0.69043 -17.708 4.88477 -22.7051 6.20215
c4.6123 2.23438 20.0381 9.24023 22.7051 10.3643c2.60352 -1.14062 18.0771 -8.12988 22.6729 -10.3643c-4.98047 -1.31738 -20.2783 -5.51172 -22.6729 -6.20215zM271.707 22.9639c2.60352 -0.176758 4.67578 -0.0478516 7.66504 -0.416992
c0.851562 -0.0810547 2.45898 -0.208984 2.45898 -0.353516v-32.2666c0 -15.2812 -12.4697 -27.6699 -27.751 -27.6699c-15.3135 0 -27.7832 12.3887 -27.7832 27.6699v31.7842c2.69922 0.289062 4.24219 0.578125 6.29883 0.851562
c2.95703 0.370117 5.41504 0.241211 8.03418 0.401367c5.0459 0.337891 26 0.337891 31.0771 0zM170.956 38.5674c0.401367 0.867188 0.851562 1.70312 1.30176 2.55469c3.93652 -1.60645 15.3779 -5.62402 38.5811 -9.48047
c-1.52637 -0.450195 -30.1133 -4.53125 -25.6943 -45.8604c0.385742 -3.58301 0.883789 -5.52734 0.883789 -5.52734s-6.84473 4.27344 -14.0762 17.2734c-3.34277 6.52441 -6.76465 16.0205 -4.91699 28.2969c0.498047 4.24219 1.89648 8.56543 3.9209 12.7432z
M312.988 104.449v0.192383v0v-0.192383zM359.571 140.845c21.709 -35.126 2.52246 -65.2871 -9.75391 -75.8926c-2.3457 -1.94434 -4.66016 -3.63184 -6.97363 -5.11035c-0.369141 0.290039 -0.739258 0.546875 -1.17285 0.820312
c-10.252 6.90918 -35.3193 20.2949 -68.501 31.1572c4.04883 0.979492 8.06641 1.87988 11.9551 2.82812c6.95703 1.65527 13.5137 3.32617 19.0898 5.39844c5.39844 1.78418 9.28711 3.16602 9.94629 5.33496c4.96484 10.9912 -52.9473 34.0664 -58.0244 36.1875
c-0.610352 -0.225586 -36.6367 17.0488 -66.3643 32.041c-25.3887 16.9688 -35.2871 35.0137 -38.5488 44.6875c-3.16602 9.7373 -3.74414 17.8037 -3.55176 22.9619c0.305664 5.12598 0.482422 7.87402 0.482422 7.87402c0.996094 12.4531 11.8906 21.7568 24.3125 20.8086
c12.4688 -0.996094 21.8047 -11.875 20.8086 -24.3281c0.208984 0.0644531 0.0166016 -4.4668 2.87598 -9.33594c1.59082 -2.41016 3.87305 -5.5918 8.62891 -9.33594c4.69238 -3.67969 11.457 -8.03418 20.1504 -12.2441
c1.83203 -0.900391 3.71191 -1.7998 5.70508 -2.68359c7.56836 -3.42285 16.1162 -6.8457 25.5166 -10.4609c11.7783 4.54785 22.3037 8.79004 31.1895 13.1445c8.66113 4.20996 15.4268 8.54883 20.1504 12.2441c4.75684 3.74414 7.00586 6.92578 8.59668 9.33594
c2.86035 4.86914 2.66797 9.41699 2.90918 9.33594c-0.980469 12.4531 8.33984 23.3486 20.7764 24.3281c12.4697 0.948242 23.3643 -8.35547 24.3281 -20.8086c0 0 0.161133 -2.74805 0.498047 -7.87402c0.176758 -5.1582 -0.176758 -29.1006 -22.0781 -51.5
c-5.89746 -6.05859 -12.7109 -11.377 -20.0215 -16.1494c4.77246 -2.69922 26.7861 -16.1328 37.0703 -32.7646zM330.278 54.0254c0.208984 -0.144531 27.5898 -18.7686 10.1074 -56.5459c-6.2832 -13.4824 -14.1084 -17.2744 -14.1084 -17.2744
s0.513672 1.94434 0.931641 5.52832c0.530273 3.50293 1.18945 8.66016 0.722656 14.7832c-0.385742 6.02539 -2.12109 12.79 -5.55957 18.0449c-9.38379 14.3174 -42.8076 17.9492 -46.8408 18.415c-12.1318 1.47852 -24.8584 3.02051 -38.0508 4.62793
c-13.915 1.50977 -28.5703 3.3418 -45.9727 8.41992c-6.29883 1.92773 -13.3848 4.37012 -20.8896 9.01465c-2.66699 1.6543 -5.36621 3.56738 -8.11426 5.86523c-10.4766 7.98535 -19.1377 24.8418 -19.1377 37.7617c0 0 0 19.7002 9.38379 38.1143
c5.41504 10.5898 13.9639 17.1299 21.2432 22.6416c10.6377 -6.1543 38.4199 -18.0938 64.3232 -29.5508c-10.5088 -4.74023 -32.9736 -17.6436 -38.292 -23.2998c-0.498047 -0.46582 -2.66699 -2.31348 -1.6709 -5.20605
c0.707031 -1.07715 4.43457 -3.56738 9.80176 -5.36719c5.17383 -1.87988 96.4443 -27.7988 122.123 -45.9727z" />
    <glyph glyph-name="103-business" unicode="&#xf141;" 
d="M351.896 111.363h-191.052v76.2227l95.0273 -24.1816l96.0244 25.3623v-77.4033zM351.896 219.786l-96.0312 -25.417l-95.0205 24.1748v38.1348h48.0596v10.4297c0 26.208 21.3203 47.5283 47.5283 47.5283c26.207 0 47.5283 -21.3203 47.5283 -47.5283v-10.4297h47.9355
v-36.8926zM238.904 267.108v-10.4297h35.0566v10.4297c0 9.66602 -7.86328 17.5283 -17.5283 17.5283c-9.66602 0 -17.5283 -7.8623 -17.5283 -17.5283zM256 374.255c-44.9277 0 -86.0508 -16.2656 -117.824 -43.2178l-52.6777 52.6777l13.375 10.4365
c45.1455 35.2275 99.4785 53.8486 157.127 53.8486s111.982 -18.6211 157.127 -53.8477l13.375 -10.4375l-52.6777 -52.6777c-31.7734 26.9521 -72.8965 43.2178 -117.824 43.2178zM458.151 349.127c35.2275 -45.1445 53.8486 -99.4775 53.8486 -157.127
c0 -57.6484 -18.6211 -111.981 -53.8486 -157.126l-10.4375 -13.375l-52.6777 52.6777c26.9521 31.7725 43.2178 72.8955 43.2178 117.823s-16.2656 86.0508 -43.2178 117.824l52.6777 52.6777zM256 9.74512c44.9277 0 86.0508 16.2656 117.824 43.2188l52.6777 -52.6777
l-13.375 -10.4375c-45.1445 -35.2275 -99.4785 -53.8486 -157.127 -53.8486s-111.982 18.6211 -157.126 53.8486l-13.375 10.4375l52.6777 52.6768c31.7725 -26.9521 72.8955 -43.2178 117.823 -43.2178zM73.7451 192c0 -44.9277 16.2656 -86.0508 43.2188 -117.824
l-52.6777 -52.6777l-10.4375 13.375c-35.2275 45.1445 -53.8486 99.4785 -53.8486 157.127s18.6211 111.982 53.8486 157.127l10.4365 13.375l52.6777 -52.6777c-26.9521 -31.7734 -43.2178 -72.8965 -43.2178 -117.824z" />
    <glyph glyph-name="009-affiliate-marketing" unicode="&#xf101;" 
d="M256.015 312.801c36.0049 0 54.3721 -18.2656 54.373 -53.4619c0 -79.1396 -54.373 -76.9355 -54.373 -76.9355c-33.4004 -0.509766 -53.8838 28.7324 -54.3994 76.9355c-0.356445 35.1963 19.1514 53.4619 54.3994 53.4619zM445.018 56.9736
c33.4053 0 60.4834 -27.0791 60.4863 -60.4912c0 -33.4043 -27.0771 -60.4834 -60.4834 -60.4834c-33.4043 0 -60.4873 27.0791 -60.4873 60.4834c0 7.06055 1.22168 13.833 3.44531 20.1348l-27.2627 27.2637c-29.6064 -20.9922 -65.7441 -33.3398 -104.717 -33.3398
c-38.9717 0 -75.1084 12.3516 -104.715 33.3398l-27.2617 -27.2637c2.22363 -6.29688 3.44629 -13.0684 3.44629 -20.1348c0 -33.4043 -27.084 -60.4834 -60.4883 -60.4834c-33.4033 0 -60.4834 27.0791 -60.4834 60.4834c0 33.4102 27.0781 60.4893 60.4834 60.4893
c7.06348 0 13.8369 -1.22168 20.1357 -3.44531l26.3271 26.3271c-24.3516 30.8926 -38.9004 69.8496 -38.9004 112.147c0 42.2969 14.5498 81.2549 38.9004 112.146l-26.3271 26.3271c-6.29883 -2.22363 -13.0723 -3.44629 -20.1357 -3.44629
c-33.4033 0 -60.4834 27.0791 -60.4834 60.4883c0 33.4033 27.0781 60.4834 60.4824 60.4834s60.4873 -27.0801 60.4873 -60.4834c0 -7.06348 -1.22168 -13.8359 -3.44531 -20.1357l27.2598 -27.2627c29.6064 20.9893 65.7432 33.3398 104.716 33.3398
c38.9746 0 75.1084 -12.3516 104.716 -33.3398l27.2627 27.2627c-2.22266 6.2998 -3.44531 13.0723 -3.44531 20.1357c0 33.4033 27.083 60.4834 60.4873 60.4834c33.4072 0 60.4834 -27.0801 60.4834 -60.4824c0 -33.4082 -27.0762 -60.4873 -60.4834 -60.4873
c-7.06055 0 -13.834 1.22266 -20.1328 3.44531l-26.3271 -26.3271c24.3545 -30.8906 38.9004 -69.8486 38.9004 -112.146s-14.5498 -81.2559 -38.9004 -112.146l26.3271 -26.3262c6.2959 2.2207 13.0703 3.44336 20.1328 3.44336zM368.842 98.4814
c21.0537 25.377 33.7158 57.9697 33.7158 93.5176c0 80.9424 -65.6172 146.56 -146.56 146.56c-80.9414 0 -146.56 -65.6172 -146.56 -146.56c0 -35.5488 12.6592 -68.1387 33.7139 -93.5127c2.02246 19.6279 6.23633 43.1865 16.6318 47.3271l54.3311 21.6641
l12.7236 10.7207c3.35547 2.83203 8.31055 2.63281 11.4316 -0.461914l17.7393 -17.5947l17.6865 17.5879c3.11816 3.10156 8.08105 3.30762 11.4414 0.46875l12.7217 -10.7207l54.3291 -21.6621c10.4014 -4.13379 14.624 -27.7012 16.6533 -47.334z" />
    <glyph glyph-name="047-growth-chart-3" unicode="&#xf11f;" 
d="M104.533 -58.667h-87.4668v165.334h87.4668v-165.334zM38.4004 -38.4004h45.8662v124.801h-45.8662v-124.801zM237.866 -58.667h-87.4658v227.2h87.4658v-227.2zM170.667 -38.4004h45.8662v186.667h-45.8662v-186.667zM370.134 -58.667h-87.4668v289.067h87.4668
v-289.067zM304 -38.4004h45.8662v248.534h-45.8662v-248.534zM503.467 -58.667h-87.4668v352h87.4668v-352zM437.333 -38.4004h45.8672v310.4h-45.8672v-310.4zM48 152.533l-39.4668 69.333l294.4 169.601l-29.8672 51.2002l158.934 -22.4004l-59.7334 -149.333
l-29.8662 51.2002zM36.2666 214.4l19.2002 -33.0674l294.399 168.533l19.2002 -33.0664l34.1338 85.334l-91.7334 13.8662l19.2002 -32z" />
    <glyph glyph-name="034-users" unicode="&#xf112;" 
d="M193.096 323.448c44.8066 -11.9785 77.9043 -52.918 77.9043 -101.448v-30c0 -8.28418 -6.71582 -15 -15 -15h-241c-8.28418 0 -15 6.71582 -15 15v30c0 48.6055 33.5156 89.5967 78.8555 101.504c-11.123 13.0869 -17.8555 30.0156 -17.8555 48.4961
c0 41.4648 33.5371 76 75 76c41.4648 0 75 -34.5371 75 -76c0 -18.5068 -6.75195 -35.457 -17.9043 -48.5518zM136 418c-24.3926 0 -45 -21.0654 -45 -46c0 -24.8135 20.1865 -45 45 -45s45 20.1865 45 45c0 24.9346 -20.6074 46 -45 46zM241 207v15
c0 41.3555 -33.6445 75 -75 75h-60c-41.9072 0 -76 -33.6445 -76 -75v-15h211zM433.145 83.5039c45.3398 -11.9072 78.8555 -52.8984 78.8555 -101.504v-31c0 -8.28418 -6.71582 -15 -15 -15h-241c-8.28418 0 -15 6.71582 -15 15v31
c0 48.5303 33.0967 89.4697 77.9043 101.448c-11.1523 13.0947 -17.9043 30.0449 -17.9043 48.5518c0 41.3555 33.6445 75 75 75s75 -33.6445 75 -75c0 -18.4805 -6.73242 -35.4092 -17.8555 -48.4961zM376 177c-24.8135 0 -45 -20.1865 -45 -45s20.1865 -45 45 -45
s45 20.1865 45 45s-20.1865 45 -45 45zM482 -34v16c0 41.3555 -34.0938 75 -76 75h-60c-41.3555 0 -75 -33.6445 -75 -75v-16h211zM206.604 22.6104c5.87402 -5.86816 5.81445 -15.4102 0 -21.2188l-29.9961 -29.998c-5.85742 -5.85742 -15.3564 -5.85742 -21.2139 0
s-5.85742 15.3555 0 21.2139l4.39355 4.39355h-53.7871c-41.3555 0 -75 33.6455 -75 75v60c0 8.28418 6.71582 15 15 15s15 -6.71582 15 -15v-60c0 -24.8125 20.1865 -45 45 -45h53.7871l-4.39355 4.39355c-5.85742 5.8584 -5.85742 15.3555 0 21.2139
c5.8584 5.85742 15.3564 5.85742 21.2139 0zM346 387c41.3555 0 75 -33.6445 75 -75v-60c0 -8.28418 -6.71582 -15 -15 -15s-15 6.71582 -15 15v60c0 24.8135 -20.1865 45 -45 45h-53.7871l4.39355 -4.39258c5.85742 -5.8584 5.85742 -15.3555 0 -21.2139
c-5.8584 -5.85742 -15.3564 -5.85645 -21.2139 0l-30 30c-5.80273 5.80273 -5.88184 15.332 0 21.2139l30 30c5.8584 5.85742 15.3564 5.85742 21.2139 0c5.8584 -5.8584 5.8584 -15.3564 0 -21.2148l-4.39355 -4.39258h53.7871z" />
    <glyph glyph-name="109-user-profile" unicode="&#xf147;" 
d="M384 89.5996c71.6797 0 128 -56.3193 128 -128v-25.5996h-256v25.5996c0 71.6807 56.3203 128 128 128zM312.32 -12.7998h143.359c-10.2393 30.7197 -38.3994 51.2002 -71.6797 51.2002s-61.4404 -20.4805 -71.6797 -51.2002zM460.8 166.4
c0 -43.5205 -33.2803 -76.8008 -76.7998 -76.8008s-76.7998 33.2803 -76.7998 76.8008c0 43.5195 33.2803 76.7998 76.7998 76.7998s76.7998 -33.2803 76.7998 -76.7998zM384 140.8c15.3604 0 25.5996 10.2402 25.5996 25.6006c0 15.3594 -10.2393 25.5996 -25.5996 25.5996
s-25.5996 -10.2402 -25.5996 -25.5996c0 -15.3604 10.2393 -25.6006 25.5996 -25.6006zM51.2002 268.8v-230.399h179.2v-51.2002h-230.4v317.439l143.36 143.36h240.64v-153.6h-51.2002v102.399h-153.6v-128h-128zM128 360.96l-40.96 -40.96h40.96v40.96z" />
    <glyph glyph-name="035-trophy" unicode="&#xf113;" 
d="M401.219 248.232c-12.583 -47.2178 -47.8682 -86.1133 -95.1318 -102.809v-25.7705c0 -9.20605 7.49023 -16.6963 16.6963 -16.6963c27.6182 0 50.0869 -22.4688 50.0869 -50.0869v-16.6973h16.6943c9.2207 0 16.6953 -7.47559 16.6953 -16.6963v-66.7822
c0 -9.22168 -7.47559 -16.6963 -16.6953 -16.6963h-267.131c-9.2207 0 -16.6953 7.47559 -16.6953 16.6963v66.7822c0 9.22168 7.47559 16.6963 16.6953 16.6963h16.6963v16.6963c0 27.6182 22.4688 50.0869 50.0869 50.0869c9.20605 0 16.6963 7.49023 16.6963 16.6963
v25.7705c-47.2627 16.6953 -82.5488 55.5898 -95.1318 102.809c-58.9912 5.86621 -105.216 55.7793 -105.216 116.29c0 27.6172 22.4688 50.0869 50.0869 50.0869h50.0869v16.6953c0 9.22168 7.47559 16.6963 16.6953 16.6963h267.131
c9.2207 0 16.6953 -7.47559 16.6953 -16.6963v-16.6943h50.0869c27.6182 0 50.0869 -22.4697 50.0869 -50.0869c0 -60.5107 -46.2246 -110.424 -105.216 -116.29zM406.261 381.217v-98.4971c38.0557 7.75684 66.7832 41.4883 66.7832 81.8018
c0 9.20508 -7.49023 16.6953 -16.6963 16.6953h-50.0869zM105.739 282.721v98.4971h-50.0869c-9.20605 0 -16.6963 -7.49023 -16.6963 -16.6953c0 -40.3135 28.7266 -74.0449 66.7832 -81.8018zM372.87 2.7832h-233.74v-33.3916h233.74v33.3916zM322.783 69.5654
c-27.6182 0 -50.0869 22.4688 -50.0859 50.0879v38.1133c0 7.6084 5.14258 14.2559 12.5088 16.1631c51.6152 13.3691 87.6641 59.7051 87.6641 112.681v128h-233.739v-128c0 -52.9756 36.0488 -99.3115 87.6641 -112.681
c7.36523 -1.90723 12.5098 -8.55469 12.5098 -16.1631v-38.1133c0 -27.6182 -22.4688 -50.0869 -50.0869 -50.0869c-9.20605 0 -16.6953 -7.49023 -16.6953 -16.6963v-16.6973h166.956v16.6963c0 9.20605 -7.48926 16.6963 -16.6953 16.6963zM322.783 303.304
c9.21973 0 16.6943 -7.47461 16.6953 -16.6953c0 -37.7568 -25.7539 -70.7988 -62.6279 -80.3525c-8.92969 -2.31152 -18.0371 3.05078 -20.3496 11.9746c-2.3125 8.92578 3.04688 18.0361 11.9736 20.3496c22.1455 5.73828 37.6123 25.4883 37.6123 48.0283
c0 9.2207 7.47656 16.6953 16.6963 16.6953z" />
    <glyph glyph-name="027-headphone" unicode="&#xf10b;" 
d="M512 188.421c0 -34.1816 -26.5068 -62.2686 -60.0439 -64.833v-25.2285h-35.0244v-39.7422c0 -58.0957 -47.2637 -105.359 -105.359 -105.359c-9.91797 0.0273438 -97.4277 -0.0371094 -109.79 0v36.0254c0 29.7969 24.2422 54.0371 54.0381 54.0371
c32.4912 0.0166016 56.6484 -28.0576 54.0371 -60.041c42.126 -0.949219 77.1094 33.1729 77.0537 75.3379v39.7422h-35.0244v180.125h34.7734c-15.2744 163.172 -246.343 163.296 -261.68 0h34.7734v-180.125h-100.069v25.2285c-79.5518 8.4375 -79.6104 121.199 0 129.667
v25.2285h35.2246c16.9238 202.952 304.824 203.105 321.824 0h35.2246v-25.2285c33.5342 -2.56641 60.042 -30.6533 60.042 -64.834zM29.665 188.421c0 -17.6143 13.0693 -32.2334 30.0205 -34.6689v69.3369c-16.9512 -2.43555 -30.0205 -17.0537 -30.0205 -34.668z
M129.734 128.379v120.083h-40.0283v-120.083h40.0283zM279.839 -16.7217v6.00391c0 13.2432 -10.7734 24.0166 -24.0166 24.0166s-24.0166 -10.7734 -24.0166 -24.0166v-6.00391h48.0332zM381.909 248.462v-120.083h40.0283v120.083h-40.0283zM451.958 153.752
c39.791 6.63867 39.8203 62.6816 0 69.3369v-69.3369zM240.812 201.43h30.0205v-30.0215h-30.0205v30.0215zM180.77 201.43h30.0215v-30.0215h-30.0215v30.0215zM300.854 201.43h30.0205v-30.0215h-30.0205v30.0215z" />
    <glyph glyph-name="033-analysis" unicode="&#xf111;" 
d="M461.913 448c27.6182 0 50.0869 -22.4688 50.0859 -50.0869v-300.521c0 -27.6172 -22.4688 -50.0869 -50.0869 -50.0869h-139.13v-77.9131h50.0869c9.2207 0 16.6963 -7.47461 16.6963 -16.6953c0 -9.22168 -7.47656 -16.6963 -16.6963 -16.6963h-233.739
c-9.21973 0 -16.6963 7.47363 -16.6963 16.6953c0 9.2207 7.47656 16.6953 16.6963 16.6953h50.0869v77.9131h-139.13c-27.6182 0 -50.0869 22.4697 -50.0869 50.0869v300.522c0 27.6182 22.4688 50.0869 50.0869 50.0869h411.826zM289.391 -30.6094v77.9131h-66.7822
v-77.9131h66.7822zM478.609 97.3906h-0.000976562v16.6963h-445.218v-16.6963c0 -9.20605 7.49023 -16.6953 16.6963 -16.6953h411.826c9.20605 0 16.6963 7.48926 16.6963 16.6953zM478.609 147.478v250.436c0 9.20605 -7.49023 16.6963 -16.6963 16.6963h-411.826
c-9.20605 0 -16.6963 -7.49023 -16.6963 -16.6963v-250.436h445.219zM395.125 364.522c9.34082 0.00390625 16.7061 -7.63281 16.7012 -16.7031v-66.7773c0 -9.2207 -7.47559 -16.6963 -16.6963 -16.6963s-16.6963 7.47656 -16.6963 16.6963v26.4756l-105.062 -105.062
c-6.52051 -6.52148 -17.0918 -6.52051 -23.6113 0l-54.9775 54.9766l-54.9785 -54.9766c-6.51855 -6.52148 -17.0908 -6.52148 -23.6104 -0.000976562c-6.52051 6.51953 -6.52051 17.0908 0 23.6113l66.7822 66.7822c6.52051 6.52051 17.0928 6.52051 23.6113 0
l54.9785 -54.9766l93.2588 93.2588h-26.4766c-9.2207 0 -16.6953 7.47656 -16.6953 16.6963c0 9.2207 7.47559 16.6963 16.6953 16.6963h66.7773z" />
    <glyph glyph-name="060-reload" unicode="&#xf12c;" 
d="M504.554 214.296l-76.4463 -91.4668c-6.3291 -7.57227 -15.417 -11.4795 -24.5713 -11.4795c-7.23828 0 -14.5166 2.44336 -20.5039 7.44727l-91.4668 76.4473c-13.5615 11.334 -15.3662 31.5146 -4.03223 45.0752c11.334 13.5596 31.5146 15.3652 45.0752 4.03125
l37.5059 -31.3467c-10.2744 74.8906 -74.668 132.774 -152.337 132.774c-84.793 -0.000976562 -153.777 -68.9854 -153.777 -153.778s68.9844 -153.777 153.777 -153.777c17.6729 0 32 -14.3262 32 -32c0 -17.6729 -14.3271 -32 -32 -32
c-58.1699 0 -112.859 22.6533 -153.991 63.7852c-41.1328 41.1328 -63.7861 95.8223 -63.7861 153.992s22.6533 112.859 63.7861 153.992c41.1318 41.1318 95.8213 63.7852 153.991 63.7852s112.858 -22.6533 153.991 -63.7852
c32.5176 -32.5166 53.4717 -73.5078 60.8291 -117.991l22.8496 27.3389c11.334 13.5605 31.5146 15.3643 45.0752 4.03223c13.5596 -11.335 15.3643 -31.5156 4.03125 -45.0762z" />
    <glyph glyph-name="056-business-strategy" unicode="&#xf128;" 
d="M388 312v-296c0 -4.40039 -3.59961 -8 -8 -8h-248c-4.40039 0 -8 3.59961 -8 8v296c0 4.40039 3.59961 8 8 8h30.6396v-8c0 -13.2803 10.8008 -24 24 -24h138.721c13.1992 0 24 10.7197 24 24v8h30.6396c4.40039 0 8 -3.59961 8 -8zM366.24 150
c7.2793 7.28027 -4 18.5596 -11.2803 11.2803l-11.3604 -11.2803l-11.2793 11.2803c-7.36035 7.2793 -18.6406 -4 -11.3604 -11.2803l11.3604 -11.3604l-11.3604 -11.2793c-7.28027 -7.28027 4 -18.6406 11.3604 -11.3604l11.2793 11.3604l11.3604 -11.3604
c7.28027 -7.28027 18.5596 4.08008 11.2803 11.3604l-11.2803 11.2793zM338.96 247.84c0.240234 3.91211 -2.32031 7.44043 -6.16797 8.3125l-41.0322 9.44727c-10.0801 2.32031 -13.5996 -13.2793 -3.59961 -15.5996l20.7275 -4.71973
c-3.67969 -2.80859 -7.04004 -5.83984 -10.2393 -9.2002c-22.0801 -23.1201 -32.4004 -55.2803 -43.5205 -84.6396c-10.3203 -27.1924 -20.7998 -60.1602 -46.1602 -77.3604c3.04004 -4.71973 4.7998 -10.0801 5.12012 -15.6797
c23.8398 14.168 37.9199 40.8076 47.6006 65.8398c12.2393 31.5996 22.168 69.4395 44.3193 96c4.64062 5.59961 9.91992 10.7197 16.0801 14.7998l-1.75977 -28.1602c-0.719727 -10.96 16.7197 -10.96 16 0zM320.48 56.0801c0 28.3203 -44 28.3203 -44 0
c0 -28.4004 44 -28.4004 44 0zM235.2 237.2c0 28.3994 -44 28.3994 -44 0c0 -28.4004 44 -28.4004 44 0zM203.68 161.92c7.36035 7.28027 -4 18.5518 -11.2793 11.2803l-11.2803 -11.2803l-11.3604 11.2803c-7.2793 7.27148 -18.5518 -4 -11.2793 -11.2803l11.2793 -11.3604
l-11.2793 -11.2793c-7.27246 -7.28027 4 -18.6406 11.2793 -11.3604l11.3604 11.3604l11.2803 -11.3604c7.2793 -7.28027 18.6396 4.08008 11.2793 11.3604l-11.2793 11.2793zM198.16 56.6396c0 20.6406 -32 20.6406 -32 0c0 -20.6396 32 -20.6396 32 0zM333.36 328v-16
c0 -4.40039 -3.60059 -8 -8 -8h-138.721c-4.39941 0 -8 3.59961 -8 8v16c0 4.40039 3.60059 8 8 8h38.4004c-5.28027 20.4805 11.2002 40.8799 32.3203 40c20 -0.879883 34.6396 -20.5596 29.5996 -40h38.4004c4.39941 0 8 -3.59961 8 -8zM270 344
c0 18.0801 -28 18.0801 -28 0s28 -18.0801 28 0z" />
    <glyph glyph-name="045-growth-chart-2" unicode="&#xf11d;" 
d="M73.5996 265.6c-11.7334 0 -22.3994 4.2666 -29.8662 12.8008c-8.5332 8.5332 -12.7998 19.1992 -12.7998 29.8662c0 11.7334 4.2666 22.4004 12.7998 29.8672c16 16 43.7334 16 60.7998 0c8.5332 -8.53418 12.7998 -19.2002 12.7998 -29.8672
c0 -11.7334 -4.2666 -22.4004 -12.7998 -29.8662c-8.5332 -8.53418 -19.2002 -12.8008 -30.9336 -12.8008zM73.5996 329.6c-5.33301 0 -10.666 -2.13281 -14.9326 -6.39941s-6.40039 -9.60059 -6.40039 -14.9336s2.13379 -10.667 6.40039 -14.9336
c8.5332 -8.5332 22.3994 -8.5332 29.8662 0c4.2666 4.2666 6.40039 9.60059 6.40039 14.9336s-2.13379 10.667 -6.40039 14.9336c-3.2002 4.2666 -8.5332 6.39941 -14.9336 6.39941zM195.2 144c-11.7334 0 -22.4004 4.2666 -29.8672 12.7998
c-8.5332 8.5332 -12.7998 19.2002 -12.7998 29.8672c0 11.7334 4.2666 22.3994 12.7998 29.8662c8.5332 8.5332 19.2002 12.7998 29.8672 12.7998c11.7334 0 22.3994 -4.2666 29.8662 -12.7998c8.5332 -8.5332 12.7998 -19.2002 12.7998 -29.8662
c0 -11.7334 -4.2666 -22.4004 -12.7998 -29.8672s-19.2002 -12.7998 -29.8662 -12.7998zM195.2 208c-5.33398 0 -10.667 -2.13379 -14.9336 -6.40039s-6.40039 -9.59961 -6.40039 -14.9326c0 -5.33398 2.13379 -10.667 6.40039 -14.9336
c8.5332 -8.5332 22.4004 -8.5332 29.8672 0c4.2666 4.2666 6.39941 9.59961 6.39941 14.9336c0 5.33301 -2.13281 10.666 -6.39941 14.9326c-4.26758 4.2666 -9.60059 6.40039 -14.9336 6.40039zM316.8 357.333c-11.7334 0 -22.3994 4.2666 -29.8662 12.8008
c-8.5332 8.5332 -12.7998 19.1992 -12.7998 29.8662c0 11.7334 4.2666 22.4004 12.7998 29.8662c16 16 43.7334 16 60.7998 0c8.5332 -8.5332 12.7998 -19.1992 12.7998 -29.8662c0 -11.7334 -4.2666 -22.4004 -12.7998 -29.8662
c-8.5332 -8.53418 -19.2002 -12.8008 -30.9336 -12.8008zM316.8 421.333c-5.33301 0 -10.666 -2.13281 -14.9336 -6.39941c-4.2666 -4.2666 -6.39941 -9.60059 -6.39941 -14.9336s2.13281 -10.667 6.39941 -14.9336c8.53418 -8.5332 22.4004 -8.5332 29.8672 0
c4.2666 4.2666 6.40039 9.60059 6.40039 14.9336s-2.13379 10.667 -6.40039 14.9336c-3.2002 4.2666 -8.5332 6.39941 -14.9336 6.39941zM438.4 236.8c-11.7334 0 -22.4004 4.2666 -29.8672 12.7998c-8.5332 8.53418 -12.7998 19.2002 -12.7998 29.8672
c0 11.7334 4.2666 22.3994 12.7998 29.8662c16 16 43.7334 16 60.7998 0c8.5332 -8.5332 12.8008 -19.1992 12.8008 -29.8662c0 -11.7334 -4.26758 -22.4004 -12.8008 -29.8672c-9.59961 -8.5332 -20.2666 -12.7998 -30.9326 -12.7998zM438.4 300.8
c-5.33398 0 -10.667 -2.13281 -14.9336 -6.39941s-6.40039 -9.60059 -6.40039 -14.9336s2.13379 -10.667 6.40039 -14.9336c8.5332 -8.5332 22.3994 -8.5332 29.8662 0c4.2666 4.2666 6.40039 9.60059 6.40039 14.9336s-2.13379 10.667 -6.40039 14.9336
s-9.59961 6.39941 -14.9326 6.39941zM347.702 385.456l75.4141 -75.4131l-15.083 -15.083l-75.4131 75.4131zM292.437 378.173l18.4961 -10.6455l-90.4854 -157.216l-18.4961 10.6455zM104.209 292.771l75.4131 -75.4141l-15.082 -15.082l-75.4141 75.4131zM506.667 -58.667
h-71.4668v213.334h71.4668v-213.334zM456.533 -37.333h28.7998v170.666h-28.7998v-170.666zM363.733 -58.667h-71.4668v334.934h71.4668v-334.934zM313.6 -37.333h28.8008v292.267h-28.8008v-292.267zM219.733 -58.667h-71.4668v117.334h71.4668v-117.334zM169.6 -37.333
h28.8008v74.666h-28.8008v-74.666zM76.7998 -58.667h-71.4668v238.934h71.4668v-238.934zM26.667 -37.333h28.7998v196.267h-28.7998v-196.267z" />
    <glyph glyph-name="053-networking" unicode="&#xf125;" 
d="M141.44 112c0 -4.87988 -1.2002 -8.95996 -3.12012 -12.2402c-10.7207 -18 -44.8799 -13.9199 -44.8799 12.2402c0 17.4404 15.1992 25.04 28.4795 22.7998c10.3203 -1.67969 19.5205 -9.2002 19.5205 -22.7998zM125.44 232.8v-81.5996
c-0.400391 0.0800781 -0.800781 0.160156 -1.2002 0.160156c-4.87988 0.879883 -9.91992 0.799805 -14.7998 -0.160156v81.5996c4.87988 -0.959961 9.91992 -1.04004 14.7998 -0.160156c0.399414 0 0.799805 0.0800781 1.2002 0.160156zM138.32 284.24
c1.91992 -3.28027 3.12012 -7.36035 3.12012 -12.2402c0 -13.5996 -9.2002 -21.1201 -19.5205 -22.7998c-13.2803 -2.24023 -28.4795 5.35938 -28.4795 22.7998c0 26.1602 34.1592 30.2402 44.8799 12.2402zM226.08 325.44l-70.7197 -40.8008
c-1.68066 5.12012 -4.40039 9.84082 -8 13.9199l70.7197 40.8008c1.67969 -5.12012 4.40039 -9.84082 8 -13.9199zM280 352c0 -4.87988 -1.2002 -8.95996 -3.12012 -12.2402c-9.51953 -16 -37.5996 -14.4795 -43.6797 4.32031
c-0.799805 2.40039 -1.2002 5.04004 -1.2002 7.91992c0 30.96 48 30.96 48 0zM293.92 339.36l70.7197 -40.8008c-3.59961 -4.0791 -6.31934 -8.7998 -8 -13.9199l-70.7197 40.8008c3.59961 4.0791 6.32031 8.7998 8 13.9199zM418.56 272
c0 -13.5996 -9.19922 -21.1201 -19.5195 -22.7998c-13.2803 -2.24023 -28.4805 5.35938 -28.4805 22.7998c0 2.87988 0.400391 5.51953 1.2002 7.91992c7.36035 22.7998 46.7998 20.1602 46.7998 -7.91992zM402.56 232.8v-81.5996
c-0.399414 0.0800781 -0.799805 0.160156 -1.19922 0.160156c-4.87988 0.879883 -9.91992 0.799805 -14.8008 -0.160156v81.5996c4.88086 -0.959961 9.9209 -1.04004 14.8008 -0.160156c0.399414 0 0.799805 0.0800781 1.19922 0.160156zM399.04 134.8
c10.3203 -1.67969 19.5195 -9.2002 19.5195 -22.7998c0 -28.0801 -39.4395 -30.7197 -46.7998 -7.91992c-0.799805 2.40039 -1.2002 5.04004 -1.2002 7.91992c0 17.4404 15.2002 25.04 28.4805 22.7998zM364.64 85.4404l-70.7197 -40.8008
c-1.67969 5.12012 -4.40039 9.84082 -8 13.9199l70.7197 40.8008c1.68066 -5.12012 4.40039 -9.84082 8 -13.9199zM276.88 44.2402c1.91992 -3.28027 3.12012 -7.36035 3.12012 -12.2402c0 -30.96 -48 -30.96 -48 0c0 2.87988 0.400391 5.51953 1.2002 7.91992
c6.08008 18.7998 34.1602 20.3203 43.6797 4.32031zM350.72 207.76c1.68066 -10.3994 1.68066 -21.1201 0 -31.5195l-0.55957 -3.2002h-17.7598c-1.91992 -7.59961 -4.88086 -14.8799 -8.95996 -21.5996l12.5596 -12.5605l-1.91992 -2.71973
c-6.08008 -8.56055 -13.6797 -16.1602 -22.2402 -22.2402l-2.71973 -1.91992l-12.5605 12.5596c-6.71973 -4.0791 -14 -7.04004 -21.5996 -8.95996v-17.7598l-3.2002 -0.55957c-10.3994 -1.68066 -21.1201 -1.68066 -31.5195 0l-3.2002 0.55957v17.7598
c-7.59961 1.91992 -14.8799 4.88086 -21.5996 8.95996l-12.5605 -12.5596l-2.71973 1.91992c-8.56055 6.08008 -16.1602 13.6797 -22.2402 22.2402l-1.91992 2.71973l12.5596 12.5605c-4.0791 6.71973 -7.04004 14 -8.95996 21.5996h-17.7598l-0.55957 3.2002
c-1.68066 10.3994 -1.68066 21.1201 0 31.5195l0.55957 3.2002h17.7598c1.91992 7.59961 4.88086 14.8799 8.95996 21.5996l-12.5596 12.5605l1.91992 2.71973c6.08008 8.56055 13.6797 16.1602 22.2402 22.2402l2.71973 1.91992l12.5605 -12.5596
c6.71973 4.0791 14 7.04004 21.5996 8.95996v17.7598l3.2002 0.55957c10.3994 1.68066 21.1201 1.68066 31.5195 0l3.2002 -0.55957v-17.7598c7.59961 -1.91992 14.8799 -4.88086 21.5996 -8.95996l12.5605 12.5596l2.71973 -1.91992
c8.56055 -6.08008 16.1602 -13.6797 22.2402 -22.2402l1.91992 -2.71973l-12.5596 -12.5605c4.0791 -6.71973 7.04004 -14 8.95996 -21.5996h17.7598zM302.72 192c0 25.4404 -21.2793 46.7197 -46.7197 46.7197s-46.7197 -21.2793 -46.7197 -46.7197
s21.2793 -46.7197 46.7197 -46.7197s46.7197 21.2793 46.7197 46.7197zM155.36 99.3604l70.7197 -40.8008c-3.59961 -4.0791 -6.32031 -8.7998 -8 -13.9199l-70.7197 40.8008c3.59961 4.0791 6.31934 8.7998 8 13.9199z" />
    <glyph glyph-name="054-business-plan" unicode="&#xf126;" 
d="M305.68 381.92c80 -31.6797 107.36 -131.92 83.7607 -208.96c-3.04004 -9.83984 -18.3203 -5.2002 -15.3604 4.63965c4.47949 14.7207 7.04004 29.8408 7.59961 45.2002c0.879883 64.6406 -30.7998 135.76 -100 149.36
c-7.2793 1.43945 -14.5596 2.08008 -21.9199 2.16016c-10.3193 0 -10.3193 16 0 16c15.6006 -0.240234 31.2803 -2.64062 45.9199 -8.40039zM130.16 40h244v-32h-244v32zM333.76 310.88c24.4805 -36.3994 30.1602 -84.5596 17.4404 -126.24
c-10.1602 -32.3193 -28.7998 -61.5195 -25.3604 -96.6396h-151.2c-3.12012 27.1201 6.32031 54.0801 25.5205 73.4404c19.4395 19.8398 44.6396 42.5596 41.4395 73.1992c24.1602 10.96 36.4004 38.1602 28.5605 63.4404
c-3.04004 9.83984 -18.3203 5.12012 -15.2803 -4.71973c10.0801 -32.8008 -28.3994 -60.4004 -56.1602 -40.7207l-40.3193 -27.7598c-3.52051 -2.39941 -8.24023 -1.59961 -10.8809 1.75977l-15.5195 20c-2.40039 3.12012 -2.24023 7.44043 0.400391 10.3203
c22.3193 24.6396 42.5596 51.04 60.4795 79.1201c-0.399414 12.4795 -2.95996 24.7998 -7.59961 36.3203c17.2793 -5.2002 33.2002 -14.2402 46.4795 -26.4805l4.24023 1.2002c36.5596 10.0801 76.5596 -4.71973 97.7598 -36.2402zM224.24 320.96
c0 12.8799 -20 12.8799 -20 0s20 -12.8799 20 0zM156.16 72h192v-16h-192v16z" />
    <glyph glyph-name="015-bank" unicode="&#xf107;" 
d="M10.667 -10.667h490.666v-42.666h-490.666v42.666zM42.667 42.667h426.666v-32h-426.666v32zM213.333 85.333h21.334v128h-21.334v21.334h85.334v-21.334h-21.334v-128h21.334v-21.333h-85.334v21.333zM352 85.333h21.333v128h-21.333v21.334h85.333v-21.334h-21.333
v-128h21.333v-21.333h-85.333v21.333zM74.667 85.333h21.333v128h-21.333v21.334h85.333v-21.334h-21.333v-128h21.333v-21.333h-85.333v21.333zM234.667 330.667c0 11.7822 9.55078 21.333 21.333 21.333s21.333 -9.55078 21.333 -21.333s-9.55078 -21.334 -21.333 -21.334
s-21.333 9.55176 -21.333 21.334zM480 309.333v-53.333h-448v53.333l224 128zM256 288c23.5518 0 42.667 19.1143 42.667 42.667c0 23.5518 -19.1152 42.666 -42.667 42.666s-42.667 -19.1143 -42.667 -42.666c0 -23.5527 19.1152 -42.667 42.667 -42.667z" />
    <glyph glyph-name="079-speech-bubble" unicode="&#xf137;" 
d="M74.5459 -33.3984h-36.2783l25.6523 25.6523c13.8311 13.832 22.4688 31.8213 24.791 51.3369c-59.2314 38.8711 -88.7109 95.1826 -88.7109 154.217c0 108.911 100.1 219.591 256.867 219.591c166.078 0 255.133 -101.847 255.133 -210.05
c0 -108.916 -89.9951 -210.693 -255.133 -210.693c-28.9277 0 -59.1143 3.86133 -86.0645 10.9473c-25.5117 -26.167 -60.0791 -41.001 -96.2568 -41.001z" />
    <glyph glyph-name="059-refresh" unicode="&#xf12b;" 
d="M31.417 178.346l-0.000976562 0.00195312c-7.56348 123.764 87.1113 230.858 211.334 238.438c28.2812 0.411133 29.8545 -40.9619 2.08398 -42.6875c-100.748 -6.15625 -176.865 -92.3359 -170.708 -193.083c6.15625 -100.748 92.293 -176.993 193.041 -170.833
c100.748 6.15625 177.032 92.293 170.875 193.041c-3.11816 51.0225 -27.0225 95.5664 -62.75 126.542l8.25 -43.085c6.80176 -28.8896 -37.5469 -37.3623 -41.875 -7.99805l-17.166 88.791c-2.26074 11.6182 5.36816 22.8564 16.999 25.042l90.6465 17.417
c28.6846 1.54199 32.79 -37.8516 6.22949 -42.125l-34.375 -6.62793c43.5732 -38.1865 72.7764 -92.9688 76.583 -155.25c7.56348 -123.764 -87.1113 -230.729 -210.875 -238.292s-230.729 86.9453 -238.292 210.709z" />
    <glyph glyph-name="078-play-button-1" unicode="&#xf136;" 
d="M376 210.16c5.55176 -3.47461 10.0576 -11.6104 10.0576 -18.1602s-4.50586 -14.6855 -10.0576 -18.1602l-217.296 -135.792c-2.88184 -1.81641 -7.98535 -3.29102 -11.3926 -3.29102c-11.79 0 -21.3594 9.56934 -21.3594 21.3594v0.0917969v271.6
c0.00585938 11.8115 9.59668 21.3975 21.4082 21.3975c3.3877 0 8.46973 -1.45801 11.3438 -3.25293z" />
    <glyph glyph-name="096-idea" unicode="&#xf13a;" 
d="M166.4 12.7998v96.6143c-0.136719 3.62109 -2.68262 8.20898 -5.68359 10.2402c-39.251 27.4102 -71.1074 88.5107 -71.1074 136.386c0 39.7803 23.5527 94.1475 52.5732 121.355c26.5156 24.918 77.5664 45.1406 113.953 45.1406
c91.8525 0 166.399 -74.5469 166.399 -166.399c0 -47.9863 -31.9668 -109.176 -71.3545 -136.585c-3.0166 -2.02148 -5.5166 -6.60938 -5.58105 -10.2402v-96.5117c0 -7.06543 -5.73438 -12.7998 -12.7998 -12.7998h-27.2891
c-5.5498 -21.0615 -27.7305 -38.1553 -49.5107 -38.1553s-43.9609 17.0938 -49.5107 38.1553h-27.2891c-7.06543 0 -12.7998 5.73438 -12.7998 12.7998zM256 -12.7998c8.1582 0 18.0908 5.73438 22.1699 12.7998h-44.3398
c4.0791 -7.06543 14.0117 -12.7998 22.1699 -12.7998zM320 25.5996v25.6006h-128v-25.6006h128zM240.998 76.7998h30.0039l31.6416 170.035l-41.5234 -18.9951c-1.35254 -0.584961 -3.64648 -1.05957 -5.12012 -1.05957s-3.76758 0.474609 -5.12012 1.05957
l-41.7275 19.0469zM115.2 256c0.0634766 -40.4336 27.0146 -92.043 60.1602 -115.2c9.16406 -6.29297 16.6182 -20.4219 16.6396 -31.5391v-32.2559h23.04l-35.8398 189.439c-0.130859 0.669922 -0.236328 1.76758 -0.236328 2.44922
c0 7.06543 5.73438 12.7998 12.7998 12.7998c1.61523 0 4.10645 -0.569336 5.56152 -1.27051l58.6748 -26.9824l58.624 26.7773c1.40234 0.643555 3.79297 1.16504 5.33594 1.16504c7.06543 0 12.8008 -5.73438 12.8008 -12.7998
c0 -0.652344 -0.0976562 -1.70215 -0.216797 -2.34277l-35.584 -189.44h23.04v32.5117c0.0742188 10.998 7.48242 24.9902 16.5381 31.2324c33.2646 23.1973 60.2617 74.9375 60.2617 115.492c0 77.7207 -63.0781 140.8 -140.8 140.8s-140.8 -63.0791 -140.8 -140.8
v-0.0361328z" />
    <glyph glyph-name="097-employee" unicode="&#xf13b;" 
d="M76.7998 -38.4004c-7.06543 0 -12.7998 5.73438 -12.7998 12.8008v51.1992c0.101562 77.1191 59.7393 158.961 133.12 182.682c-31.0889 18.4873 -56.3203 62.8467 -56.3203 99.0166c0 63.5898 51.6094 115.2 115.2 115.2s115.2 -51.6104 115.2 -115.2
c0 -36.1699 -25.2314 -80.5293 -56.3203 -99.0166c73.3809 -23.7207 133.019 -105.562 133.12 -182.682v-51.1992c0 -7.06641 -5.73438 -12.8008 -12.7998 -12.8008s-12.7998 5.73438 -12.7998 12.8008v51.1992c-0.0537109 68.6318 -53.499 140.175 -119.297 159.693
l-7.98633 -32.1025l25.0879 -138.24c0.101562 -0.59375 0.18457 -1.56543 0.18457 -2.16797c0 -3.6123 -2.37695 -8.26074 -5.30469 -10.376l-51.2002 -38.3994c-1.88379 -1.41309 -5.3252 -2.56055 -7.67969 -2.56055c-2.35547 0 -5.7959 1.14746 -7.68066 2.56055
l-51.1992 38.3994c-2.92871 2.11523 -5.30566 6.76367 -5.30566 10.376c0 0.602539 0.0830078 1.57422 0.185547 2.16797l25.0879 138.24l-7.9873 32.1025c-65.9736 -19.3877 -119.602 -90.9297 -119.706 -159.693v-51.1992c0 -7.06641 -5.73438 -12.8008 -12.7998 -12.8008
zM256 -9.62598l37.1709 27.9043l-22.2715 122.521h-29.7988l-22.2715 -122.521zM271.36 166.4l6.55371 24.166c-5.95215 0.791016 -15.6543 1.43359 -21.6582 1.43359s-15.7061 -0.642578 -21.6572 -1.43359l6.04102 -24.166h30.7207zM166.4 307.2
c0.0556641 -49.4033 40.1963 -89.5439 89.5996 -89.6006c49.459 0 89.5996 40.1416 89.5996 89.6006s-40.1406 89.5996 -89.5996 89.5996s-89.5996 -40.1406 -89.5996 -89.5996zM377.6 64c7.06641 0 12.8008 -5.73438 12.8008 -12.7998s-5.73438 -12.7998 -12.8008 -12.7998
h-38.3994c-7.06543 0 -12.7998 5.73438 -12.7998 12.7998s5.73438 12.7998 12.7998 12.7998h38.3994z" />
    <glyph glyph-name="111-online-marketing" unicode="&#xf148;" 
d="M320.504 415.949h21.3672c17.5713 0 32.0498 -14.4785 32.0498 -32.0498v-42.7344v-42.7334v-42.7344c0 -17.5703 -14.4785 -32.0498 -32.0498 -32.0498h-21.3672h-0.00292969c-1.13379 0 -2.9082 0.34082 -3.96191 0.761719l-51.3613 20.542
c-4.46484 -12.3535 -16.335 -21.3037 -30.1416 -21.3037h-42.7334c-17.5713 0 -32.0508 14.4795 -32.0508 32.0498v12.5723c-12.3867 4.44727 -21.3672 16.333 -21.3672 30.1621v42.7334c0 17.5713 14.4795 32.0508 32.0508 32.0508h40.668l104.936 41.9727
c1.05371 0.419922 2.82812 0.760742 3.96191 0.760742h0.00292969zM322.56 394.583l-98.207 -39.2812v-71.0068l98.207 -39.2803h19.3115c6.10352 0 10.6836 4.5791 10.6836 10.6826v42.7344v42.7334v42.7344c0 6.10352 -4.58008 10.6836 -10.6836 10.6836h-19.3115z
M170.936 351.849c-6.10352 0 -10.6836 -4.58008 -10.6836 -10.6836v-42.7334c0 -6.10352 4.58008 -10.6836 10.6836 -10.6836h32.0498v64.1006h-32.0498zM64.1221 330.492h53.3857c0.0654297 0.00195312 0.171875 0.00292969 0.237305 0.00292969
c5.89844 0 10.6855 -4.78711 10.6855 -10.6865c0 -5.89844 -4.78711 -10.6855 -10.6855 -10.6855c-0.0654297 0 -0.171875 0.000976562 -0.237305 0.00195312h-53.3857c-6.10352 0 -10.6943 -4.58984 -10.6943 -10.6934v-42.7441
c0.00195312 -0.0654297 0.00292969 -0.171875 0.00292969 -0.237305c0 -5.89844 -4.78809 -10.6865 -10.6865 -10.6865s-10.6855 4.78809 -10.6855 10.6865c0 0.0654297 0.000976562 0.171875 0.00195312 0.237305v42.7441c0 17.5713 14.4902 32.0605 32.0615 32.0605z
M395.309 330.492h53.3867c17.5713 0 32.0605 -14.4893 32.0605 -32.0605v-256.383c0 -17.5703 -14.4893 -32.0605 -32.0605 -32.0605h-209.225l-39.625 -39.625c-1.72754 -1.72656 -5.11133 -3.12793 -7.55371 -3.12793s-5.82617 1.40137 -7.55371 3.12793l-39.5938 39.625
h-81.0225c-17.5713 0 -32.0615 14.4902 -32.0615 32.0605v128.191c0.12793 5.76758 4.91406 10.4492 10.6836 10.4492s10.5557 -4.68164 10.6836 -10.4492v-128.191c0 -6.10352 4.59082 -10.6826 10.6943 -10.6826h85.4463
c2.4502 -0.00585938 5.83887 -1.42188 7.56445 -3.16211l35.1797 -35.1699l35.1699 35.1699c1.72754 1.74219 5.12109 3.15918 7.57422 3.16211h213.639c6.10352 0 10.6836 4.5791 10.6836 10.6826v256.383c0 6.10352 -4.58008 10.6934 -10.6836 10.6934h-53.3867
c-0.0644531 -0.000976562 -0.170898 -0.00195312 -0.236328 -0.00195312c-5.89941 0 -10.6865 4.78711 -10.6865 10.6855c0 5.89941 4.78711 10.6865 10.6865 10.6865c0.0654297 0 0.171875 -0.000976562 0.236328 -0.00292969zM181.619 266.381v-10.6836
c0 -6.10352 4.58008 -10.6826 10.6836 -10.6826h42.7334c5.11719 0 9.12402 3.23828 10.2979 7.87695l-33.7305 13.4893h-29.9844zM42.7334 223.647c5.89746 0 10.6836 -4.78613 10.6836 -10.6836s-4.78613 -10.6836 -10.6836 -10.6836
c-5.89648 0 -10.6826 4.78613 -10.6826 10.6836s4.78613 10.6836 10.6826 10.6836zM170.936 116.812c17.5742 0 32.0605 -14.4863 32.0605 -32.0605s-14.4863 -32.0605 -32.0605 -32.0605c-13.832 0 -25.7139 8.9873 -30.1621 21.377h-33.9492
c-0.0654297 -0.00195312 -0.170898 -0.00292969 -0.236328 -0.00292969c-5.89941 0 -10.6865 4.78809 -10.6865 10.6865s4.78711 10.6855 10.6865 10.6855c0.0654297 0 0.170898 -0.000976562 0.236328 -0.00195312h33.9492c4.44824 12.3887 16.3301 21.377 30.1621 21.377z
M405.972 95.4453c5.89746 0 10.6836 -4.78613 10.6836 -10.6836c0 -5.89648 -4.78613 -10.6826 -10.6836 -10.6826s-10.6836 4.78613 -10.6836 10.6826c0 5.89746 4.78613 10.6836 10.6836 10.6836zM170.936 95.4355c-6.02734 0 -10.6836 -4.65723 -10.6836 -10.6836
c0 -6.02734 4.65625 -10.6836 10.6836 -10.6836c6.02637 0 10.6934 4.65625 10.6934 10.6836c0 6.02637 -4.66699 10.6836 -10.6934 10.6836zM235.057 95.4355h138.875c0.0654297 0.000976562 0.171875 0.00195312 0.236328 0.00195312
c5.89941 0 10.6865 -4.78711 10.6865 -10.6855s-4.78711 -10.6865 -10.6865 -10.6865c-0.0644531 0 -0.170898 0.000976562 -0.236328 0.00292969h-138.875c-0.0644531 -0.00195312 -0.170898 -0.00292969 -0.236328 -0.00292969
c-5.89844 0 -10.6855 4.78809 -10.6855 10.6865s4.78711 10.6855 10.6855 10.6855c0.0654297 0 0.171875 -0.000976562 0.236328 -0.00195312z" />
    <glyph glyph-name="100-photographer" unicode="&#xf13e;" 
d="M494.067 394.492c7.25 -0.493164 12.8799 -6.51758 12.8779 -13.7832v-31.457c0 -7.2666 -5.62891 -13.292 -12.8789 -13.7842l-48.1279 -3.26855v-12.0166c0 -5.44238 -4.41309 -9.85449 -9.85449 -9.85449h-28.9668l8.60547 12.5576
c15.6885 22.8936 9.84766 54.1689 -13.0459 69.8564c-7.68457 5.26562 -16.3145 8.09473 -24.9824 8.67871v8.35645c0 5.44141 4.41211 9.85449 9.85449 9.85449h48.5361c5.44336 0 9.85449 -4.41309 9.85449 -9.85449v-12.0176zM260.685 338.99
c-29.5703 7.97852 -47.0732 38.416 -39.0947 67.9873c7.97852 29.5693 38.417 47.0723 67.9863 39.0947c29.5693 -7.97852 47.0732 -38.418 39.0947 -67.9873c-7.93066 -29.3896 -38.2754 -47.1104 -67.9863 -39.0947zM388.478 372.016
c11.4453 -7.84277 14.3652 -23.4814 6.52246 -34.9277l-56.7432 -82.8047c-4.6875 -6.84082 -12.4463 -10.9219 -20.7246 -10.9219c-0.119141 0 -0.239258 0.000976562 -0.359375 0.00195312l-94.9287 1.35254l73.8408 -20.6709l-24.7021 -91.5566l34.0225 -4.98633
c13.0742 -1.91602 23.3779 -12.124 25.416 -25.1797l20.5371 -131.517c2.56934 -16.4521 -8.68457 -31.8711 -25.1357 -34.4414c-16.4326 -2.57031 -31.8701 8.66797 -34.4414 25.1367l-17.1094 109.559l-86.2881 12.6475l28.502 -109.997
c2.34766 -9.05664 0.354492 -18.6904 -5.39062 -26.0762c-5.71289 -7.34473 -14.4971 -11.6348 -23.7949 -11.6357c-0.0537109 0 -0.105469 0 -0.158203 0.000976562l-124.823 0.65332c-16.6523 0.0869141 -30.0801 13.6562 -29.9922 30.3066
c0.0869141 16.5986 13.5684 29.9932 30.1455 29.9932c0.0527344 0 0.107422 0 0.161133 -0.000976562l85.6543 -0.448242c-29.8701 115.277 -28.0176 107.94 -28.3545 109.815c-17.459 -7.58496 -36.7441 -9.37793 -55.3564 -3.78906
c-46.8828 14.0771 -71.5654 69.5752 -54.5293 123.421c26.8916 -10.627 55.7617 -14.4434 81.5791 -1.19922c21.5381 11.0498 34.3018 30.7461 41.6475 47.4277c3.12012 7.08789 5.26367 13.6279 6.68359 18.7314c19.7402 -2.0752 38.8994 7.09277 44.7617 25.2617
c6.59375 20.4375 -7.70312 43.4082 -31.8711 51.2061c-24.0996 7.77246 -49.0615 -2.08301 -55.7861 -22.9268c-5.44141 -16.8672 3.15332 -36.917 22.9961 -47.4502c-1.31152 -4.80566 -3.44043 -11.3828 -6.69922 -18.4268
c-5.97266 -12.9102 -15.7393 -27.3721 -31.2266 -35.3174c-17.0781 -8.76367 -38.582 -8.12012 -64.0664 1.87988c15.0088 28.3535 40.6846 47.6562 68.4766 52.5215c-14.6504 15.8018 -20.9961 36.1914 -14.9268 55.0029c9.88379 30.6348 48.9121 45.4639 87.1719 33.1201
c31.9561 -10.3096 53.252 -36.3145 53.6484 -62.4541c1.41699 -0.304688 -2.76953 0.801758 59.5957 -16.0254l-49.4707 -12.3418l81.459 -1.16016l49.1289 71.6934c7.84277 11.4453 23.4805 14.3652 34.9287 6.52246zM165.327 322.558
c-2.87891 -8.92578 -15.9355 -13.9297 -29.6084 -9.51855c-13.0049 4.19434 -21.5088 15.5869 -18.4619 25.0273c2.88086 8.93457 15.9551 13.9248 29.6074 9.51855c13.0293 -4.20312 21.4844 -15.6641 18.4629 -25.0273z" />
    <glyph glyph-name="012-screen" unicode="&#xf104;" 
d="M469.359 416.037c23.5146 0 42.6445 -19.1309 42.6406 -42.6465v-278.11c0 -23.5146 -19.1299 -42.6455 -42.6445 -42.6455h-137.488l25.6787 -56.6191c1.38379 -2.64648 2.1582 -5.66113 2.1582 -8.85254c0 -10.6045 -8.59473 -19.2002 -19.2002 -19.2002h-0.0253906
h-168.956c-6.52441 0 -12.6016 3.3125 -16.1367 8.79785c-3.53516 5.4834 -4.04297 12.3877 -1.34766 18.3311l26.0947 57.543h-137.488c-23.5146 0 -42.6445 19.1309 -42.6445 42.6455v278.11c0 23.5156 19.1299 42.6465 42.6445 42.6465h426.715zM473.604 95.2793v0
l-0.000976562 278.111c0 2.3418 -1.90527 4.24609 -4.24512 4.24609h-426.713c-2.33984 0 -4.24414 -1.9043 -4.24414 -4.24609v-278.111c0 -2.34082 1.9043 -4.24414 4.24414 -4.24414h167.279h92.1562h167.279c2.33984 0 4.24414 1.90332 4.24414 4.24414z
M410.401 359.258c20.7344 0 37.6006 -16.8672 37.5996 -37.6016c0 -20.7334 -16.8682 -37.6016 -37.6016 -37.6016c-9.63867 0 -18.4365 3.64941 -25.0957 9.63281l-89.5215 -52.2354c0.0595703 -0.883789 0.107422 -1.77637 0.107422 -2.67773
c0 -20.7324 -16.8682 -37.5996 -37.6016 -37.5996c-19.1006 0 -34.9082 14.3174 -37.2812 32.7822l-92.7461 36.2998c-6.81738 -6.85742 -16.25 -11.1123 -26.6592 -11.1123c-20.7334 0 -37.6016 16.8672 -37.6016 37.6006s16.8682 37.6025 37.6016 37.6025
c20.7344 0 37.5996 -16.8691 37.5996 -37.6025c0 -1.16309 -0.0605469 -2.31348 -0.165039 -3.45117l87.5879 -34.2793c6.6875 10.4287 18.3789 17.3613 31.6641 17.3613c10.6494 0 20.2676 -4.45703 27.1152 -11.5928l87.8223 51.2412
c-0.277344 1.83789 -0.422852 3.71875 -0.422852 5.63184c0 20.7344 16.8652 37.6016 37.5986 37.6016zM101.602 284.524c6.73633 0 12.2197 5.48242 12.2197 12.2207c0 6.73926 -5.4834 12.2217 -12.2197 12.2217c-6.73926 0 -12.2197 -5.48242 -12.2197 -12.2217
c0 -6.73828 5.48047 -12.2207 12.2197 -12.2207zM258.288 226.556c6.74023 0 12.2197 5.48145 12.2197 12.2188c0 6.73828 -5.47949 12.2207 -12.2197 12.2207s-12.2207 -5.48145 -12.2207 -12.2207c0 -6.7373 5.48047 -12.2188 12.2207 -12.2188zM410.401 309.437
c6.73828 0 12.2207 5.48242 12.2207 12.2197c0 6.73828 -5.48242 12.2217 -12.2207 12.2217c-6.73633 0 -12.2207 -5.4834 -12.2207 -12.2217c0 -6.7373 5.48438 -12.2197 12.2207 -12.2197zM384.527 269.858c7.81445 -4.52637 16.7158 -6.95312 25.874 -6.9541
c9.3916 0 18.1953 2.5293 25.7969 6.9248v-155.679h-172.661v66.1436c24.2324 2.45605 43.5732 21.709 46.1582 45.9023zM208.884 216.509c5.60449 -18.1914 20.9395 -31.9102 39.5801 -35.5312v-66.8271h-172.659v130.766
c7.59863 -4.39258 16.4033 -6.92188 25.7959 -6.92188c10.5889 0 20.6895 3.16895 29.2354 9.06055z" />
    <glyph glyph-name="052-business-intelligence" unicode="&#xf124;" 
d="M405.84 303.68c25.1201 -51.1201 12.0801 -106.56 -21.8398 -149.92c-28.8799 -35.7598 -36.0801 -84.3193 -18.7197 -126.872l7.67969 -18.8877h-165.12l-3.67969 21.6797c-3.44043 20 -22.0801 33.6807 -42.1602 30.96
c-11.1201 -1.43945 -30.1602 -7.2793 -36.96 5.5127c-6.55957 12.3193 0.799805 24.8799 7.67969 35.1279l-9.91992 9.75977l21.9199 13.5996l-28.3193 7.76074l6.95996 19.1992l-30.7207 12.8008l37.2002 54.2393c2.87988 4.16016 1.04004 10 -3.59961 11.9199
c-1.68066 0.640625 -2.7207 2.32031 -2.64062 4.08008c4.80078 66.0801 45.9199 128 114.4 139.2c61.2803 10 138.72 -10.8799 167.84 -70.1602zM363.36 219.2c1.75977 10.4795 1.75977 21.1201 0 31.5117l-0.480469 3.28027h-17.7598
c-1.91992 7.59961 -4.95996 14.8799 -8.95996 21.5996l12.5596 12.5518l-1.91992 2.64062c-6.16016 8.55957 -13.6797 16.168 -22.3193 22.3193l-2.64062 1.84082l-12.5596 -12.5605c-6.7207 4.08008 -14 7.12793 -21.6006 8.95996v17.7598l-3.19922 0.560547
c-10.4805 1.75977 -21.1201 1.75977 -31.6006 0l-3.2002 -0.560547v-17.7598c-7.59961 -1.83203 -14.8799 -4.87988 -21.5996 -8.95996l-12.5605 12.5605l-2.63965 -1.84082c-8.63965 -6.15918 -16.1602 -13.7598 -22.3203 -22.3193l-1.83984 -2.64062l12.5605 -12.5518
c-4.08008 -6.71973 -7.12012 -14 -8.95996 -21.5996h-17.7607l-0.55957 -3.28027c-1.75977 -10.4004 -1.75977 -21.04 0 -31.5117l0.55957 -3.2002h17.7607c1.83984 -7.59961 4.87988 -14.8799 8.95996 -21.5996l-12.5605 -12.5527l1.83984 -2.63965
c6.16016 -8.63965 13.6807 -16.168 22.3203 -22.3203l2.63965 -1.91992l12.5605 12.5605c6.71973 -4 14 -7.04785 21.5996 -8.95996v-17.7686l3.2002 -0.479492c10.4805 -1.76074 21.1201 -1.76074 31.6006 0l3.19922 0.479492v17.7598
c7.60059 1.91211 14.8799 4.95996 21.6006 8.95996l12.5596 -12.5596l2.64062 1.91992c8.63965 6.16016 16.1592 13.6797 22.3193 22.3203l1.91992 2.63965l-12.5596 12.5605c4 6.71973 7.04004 14 8.95996 21.5996h17.7598zM268.72 281.68
c25.4404 0 46.7207 -21.1992 46.7207 -46.7197c0 -25.4404 -21.2803 -46.7197 -46.7207 -46.7197c-25.5195 0 -46.7197 21.2793 -46.7197 46.7197c0 25.5205 21.2002 46.7197 46.7197 46.7197z" />
    <glyph glyph-name="112-networking-1" unicode="&#xf149;" 
d="M74.8047 415.939c19.7852 0 36.501 -13.7051 41.2842 -32.0615h22.7861c0.0136719 0 0.0371094 0.000976562 0.0517578 0.000976562c2.81934 0 6.54492 -1.78125 8.31543 -3.97559l44.3506 -55.4834c14.0254 3.96289 28.624 6.05859 43.4434 6.06152
c20.6836 0.00488281 40.4473 -3.96875 58.6133 -11.1318l39.8643 49.8701c1.77051 2.19434 5.49609 3.97559 8.31543 3.97559h0.0517578h33.1357c4.9668 24.3154 26.5791 42.7441 52.3115 42.7441c29.375 0 53.4277 -24.0117 53.4277 -53.3867
s-24.0527 -53.4277 -53.4277 -53.4277c-25.7217 0 -47.333 18.4355 -52.3115 42.7451h-28.0127l-33.5527 -41.9521c48.7959 -27.4971 81.8369 -79.7871 81.8369 -139.688c0 -3.59082 -0.163086 -7.13965 -0.396484 -10.6729h23.6523
c4.4502 12.3857 16.3223 21.3672 30.1514 21.3672c17.5742 0 32.0605 -14.4756 32.0605 -32.0508c0 -17.5742 -14.4863 -32.0605 -32.0605 -32.0605c-13.8291 0 -25.7012 8.98145 -30.1514 21.3672h-26.4795c-3.53809 -17.3672 -9.93066 -33.6934 -18.6025 -48.5352
l61.4717 -61.4717c4.18457 2.01953 8.84375 3.19336 13.7617 3.19336c17.5742 0 32.0605 -14.4873 32.0605 -32.0615s-14.4863 -32.0605 -32.0605 -32.0605s-32.0615 14.4863 -32.0615 32.0605c0 4.91797 1.17383 9.57715 3.19336 13.7617l-58.582 58.5811
c-29.3545 -37.499 -74.9922 -61.6699 -126.209 -61.6699c-40.3447 0 -77.2305 15.0186 -105.437 39.709l-18.0703 -18.0703c3.77246 -6.36035 5.97852 -13.7412 5.97852 -21.6279c0 -23.4746 -19.2275 -42.7441 -42.7031 -42.7441
c-23.4746 0 -42.7441 19.2695 -42.7441 42.7441s19.2695 42.7031 42.7441 42.7031c7.88672 0 15.2686 -2.20605 21.6279 -5.97852l18.0596 18.0596c-24.7139 28.2051 -39.7334 65.1006 -39.708 105.468c0.0078125 12.7451 1.64062 25.3906 4.67383 37.6738
c1.05859 4.56641 5.72168 8.27344 10.4092 8.27344c5.89746 0 10.6846 -4.78711 10.6846 -10.6846c0 -0.763672 -0.158203 -1.9834 -0.352539 -2.72168c-2.64258 -10.7002 -4.04102 -21.6318 -4.04785 -32.5615c-0.0478516 -76.8232 62.0547 -138.875 138.885 -138.875
c76.8311 0 138.885 62.0547 138.885 138.885c0 76.8311 -62.0566 138.901 -138.885 138.886c-35.6396 -0.0078125 -69.9043 -13.7402 -95.7129 -38.3311c-1.73438 -1.77246 -5.15527 -3.20996 -7.63477 -3.20996c-5.89746 0 -10.6846 4.78613 -10.6846 10.6846
c0 2.64844 1.60742 6.22754 3.58789 7.9873c13.5 12.8633 29.0234 23.1182 45.7803 30.5264l-36.6201 45.7803h-17.6523c-4.77148 -18.3652 -21.4971 -32.0605 -41.2949 -32.0605c-23.4746 0 -42.7441 19.2275 -42.7441 42.7031c0 23.4746 19.2695 42.7441 42.7441 42.7441z
M74.8047 394.572c-11.9268 0 -21.377 -9.4502 -21.377 -21.377c0 -11.9277 9.4502 -21.3252 21.377 -21.3252c11.9277 0 21.3252 9.39746 21.3252 21.3252c0 11.9268 -9.39746 21.377 -21.3252 21.377zM427.328 394.572c-17.8271 0 -32.0195 -14.1914 -32.0195 -32.0195
c0 -17.8271 14.1924 -32.0605 32.0195 -32.0605s32.0508 14.2334 32.0508 32.0605c0 17.8281 -14.2236 32.0195 -32.0508 32.0195zM98.8535 317.044c0.0986328 0.00390625 0.259766 0.00585938 0.359375 0.00585938c5.89746 0 10.6846 -4.78613 10.6846 -10.6846
c0 -2.50684 -1.46582 -5.9541 -3.27148 -7.69336c-33.5332 -33.5244 -53.2393 -81.0156 -53.2402 -128.432c-0.12793 -5.76758 -4.91406 -10.4492 -10.6836 -10.4492c-5.76855 0 -10.5547 4.68164 -10.6826 10.4492c0.000976562 53.2832 21.7861 105.897 59.4678 143.569
c1.6709 1.71875 4.9707 3.16797 7.36621 3.23438zM370.896 317.002h0.03125c2.49023 0 5.9209 -1.44824 7.6582 -3.2334c22.9297 -22.9297 39.9229 -51.4062 49.7656 -82.1709c0.333008 -0.949219 0.603516 -2.53418 0.603516 -3.53906
c0 -5.89844 -4.78711 -10.6846 -10.6846 -10.6846c-4.43262 0 -9.03125 3.45508 -10.2637 7.71289c-8.82715 27.5908 -24.1514 53.1348 -44.5596 73.543c-1.80176 1.73926 -3.26465 5.18359 -3.26465 7.6875c0 5.89844 4.78711 10.6846 10.6846 10.6846h0.0292969z
M235.057 266.371c29.376 0 53.3867 -24.0527 53.3867 -53.4277c0 -16.2197 -7.34961 -30.7734 -18.8525 -40.585c23.8584 -12.5225 40.2295 -37.5137 40.2295 -66.2295c0.000976562 -0.0410156 0.000976562 -0.109375 0.000976562 -0.150391
c0 -5.89844 -4.78613 -10.6846 -10.6846 -10.6846c-5.89746 0 -10.6846 4.78613 -10.6846 10.6846c0 0.0410156 0.000976562 0.109375 0.000976562 0.150391c0 29.6279 -23.7891 53.418 -53.417 53.418s-53.417 -23.79 -53.417 -53.418
c0 -0.0410156 0.000976562 -0.109375 0.000976562 -0.150391c0 -5.89844 -4.78711 -10.6846 -10.6846 -10.6846c-5.89844 0 -10.6846 4.78613 -10.6846 10.6846c0 0.0410156 0 0.109375 0.000976562 0.150391c0 28.7158 16.3711 53.707 40.2295 66.2295
c-11.5098 9.81055 -18.8525 24.3672 -18.8525 40.585c0 29.375 24.0527 53.4277 53.4277 53.4277zM104.998 255.688c1.73047 0.0830078 4.35254 -0.552734 5.85352 -1.41895c5.10254 -2.9502 6.85156 -9.48633 3.9043 -14.5908
c0 -0.00195312 -0.00195312 -0.00390625 -0.00292969 -0.00488281c-2.94629 -5.10156 -9.48047 -6.85449 -14.585 -3.91309c-0.000976562 0.000976562 -0.00195312 0.000976562 -0.00195312 0.00195312c-5.10742 2.94824 -6.85938 9.48633 -3.91113 14.5938h0.000976562
c0 0.000976562 0 0.00195312 0.000976562 0.00195312c1.60938 2.78809 5.52539 5.17578 8.74121 5.33008zM235.057 245.004c-17.8271 0 -32.0605 -14.2334 -32.0605 -32.0605c0 -17.8281 14.2334 -32.0195 32.0605 -32.0195c17.8281 0 32.0195 14.1914 32.0195 32.0195
c0 17.8271 -14.1914 32.0605 -32.0195 32.0605zM448.695 159.557c-6.02734 0 -10.6836 -4.65625 -10.6836 -10.6836c0 -6.02637 4.65625 -10.6934 10.6836 -10.6934c6.02637 0 10.6836 4.66699 10.6836 10.6934c0 6.02734 -4.65723 10.6836 -10.6836 10.6836z
M74.8047 31.3662c-11.9268 0 -21.377 -9.4502 -21.377 -21.3779c0 -11.9268 9.4502 -21.3672 21.377 -21.3672c11.9277 0 21.3252 9.44043 21.3252 21.3672c0 11.9277 -9.39746 21.3779 -21.3252 21.3779zM344.792 23.5098
c0.139648 0.00683594 0.366211 0.0117188 0.504883 0.0117188c5.89844 0 10.6846 -4.78613 10.6846 -10.6846c0 -3.12305 -2.0957 -7.08203 -4.67871 -8.83691c-33.8984 -23.5293 -74.8447 -36.751 -116.246 -36.7559
c-30.417 -0.00390625 -60.6172 7.13672 -87.9395 20.2295c-3.62891 1.5127 -6.57422 5.93066 -6.57422 9.8623c0 5.89746 4.78613 10.6846 10.6846 10.6846c1.50586 0 3.80078 -0.585938 5.12207 -1.30859c24.5098 -11.7441 51.6357 -18.1045 78.707 -18.1006
c36.8418 0.00390625 73.7266 11.8711 104.06 32.9268c1.40723 1.00293 3.9502 1.88672 5.67578 1.97168zM448.695 9.98828c-6.02734 0 -10.6836 -4.65625 -10.6836 -10.6836c0 -6.02637 4.65625 -10.6836 10.6836 -10.6836c6.02637 0 10.6836 4.65723 10.6836 10.6836
c0 6.02734 -4.65723 10.6836 -10.6836 10.6836z" />
    <glyph glyph-name="014-pie-chart" unicode="&#xf106;" 
d="M64.6357 177.211c3.57812 -45.9521 23.4434 -87.4033 53.8105 -118.602l-45.6699 -45.6318c-43.7148 44.583 -69.2207 102.332 -72.7764 164.233h64.6357zM447.364 207.237c-7.30469 93.8027 -82.4502 168.884 -176.334 176.184v64.5791
c62.8467 -3.60645 121.43 -29.7617 166.306 -74.5986c44.877 -44.8369 71.0557 -103.37 74.6641 -166.164h-64.6357zM240.977 383.421c-93.8867 -7.2959 -169.036 -82.3779 -176.341 -176.184h-64.6357c3.6084 62.7939 29.7871 121.327 74.6641 166.164
c44.8779 44.8389 103.463 70.9951 166.312 74.5986v-64.5791zM447.364 177.211h64.6348c-3.55566 -61.9014 -29.0625 -119.65 -72.7764 -164.233l-45.6699 45.6318c30.3682 31.1982 50.2334 72.6494 53.8115 118.602zM256 0.442383
c43.0781 0 82.8857 14.2539 114.952 38.2861l46.0205 -45.9814c-45.458 -36.7598 -101.675 -56.7471 -160.973 -56.7471s-115.515 19.9873 -160.973 56.7461l46.0205 45.9814c32.0664 -24.0312 71.874 -38.2852 114.952 -38.2852zM386.198 209.342h-64.459
c-2.41113 40.918 -13.4473 78.8906 -31.582 109.571c50.542 -13.6172 89.1123 -56.6875 96.041 -109.571zM290.157 65.5352c18.3857 31.1045 29.4648 69.708 31.667 111.274h64.5811c-6.31543 -53.6592 -45.1641 -97.5127 -96.248 -111.274zM125.595 176.81h64.585
c2.20215 -41.5674 13.2822 -80.1719 31.6689 -111.276c-51.0869 13.7598 -89.9385 57.6143 -96.2539 111.276zM221.849 318.915c-18.1357 -30.6807 -29.1729 -68.6533 -31.584 -109.573h-64.4629c6.92871 52.8857 45.502 95.958 96.0469 109.573zM256.002 72.4971
c-19.1484 27.459 -30.8438 64.0469 -33.2246 104.312h66.4492c-2.38086 -40.2656 -14.0762 -76.8535 -33.2246 -104.312zM256.002 311.952c18.877 -27.0713 30.5029 -63.0186 33.1104 -102.609h-66.2197c2.60645 39.5918 14.2324 75.5391 33.1094 102.609z" />
    <glyph glyph-name="013-business-presentation" unicode="&#xf105;" 
d="M289.582 119.705v0l-67.2119 0.00390625c-3.68848 18.1445 -14.1367 32.2051 -29.6426 40.4873h126.347c-4.83105 -2.57812 -9.20508 -5.71582 -13.0312 -9.42578c-8.44141 -8.18164 -13.9971 -18.751 -16.4609 -31.0654zM89.082 160.194v-0.00195312h5.09766v208.828
h-5.09766c-11.1592 0 -20.2432 9.08301 -20.2432 20.2451c0 11.1611 9.08398 20.2422 20.2432 20.2422h148.466v20.0371c0 10.1914 8.26172 18.4551 18.4531 18.4551c10.1934 0 18.4551 -8.26465 18.4551 -18.4551v-20.0342h148.463
c11.1621 0 20.2441 -9.08105 20.2441 -20.2432c0 -11.1611 -9.08203 -20.2451 -20.2441 -20.2451h-5.09277v-208.827h5.09277c11.1621 0 20.2441 -9.08203 20.2441 -20.2461s-9.08203 -20.2451 -20.2441 -20.2451h-5.22949
c-4.23047 20.8008 -17.3418 36.2402 -36.7754 43.7471v205.569h-249.825v-205.482c-7.82227 -2.98535 -14.6836 -7.26758 -20.3643 -12.7734c-8.44141 -8.17969 -13.9951 -18.75 -16.459 -31.0625h-5.18359c-11.1592 0 -20.2432 9.08105 -20.2432 20.2451
c0 11.165 9.08398 20.2471 20.2432 20.2471zM197.17 210.564c0 -7.64453 -6.2041 -13.8438 -13.8467 -13.8438c-7.64746 0 -13.8398 6.19922 -13.8398 13.8438v65.8525c0 7.64551 6.19238 13.8447 13.8398 13.8447c7.64258 0 13.8467 -6.19922 13.8467 -13.8447v-65.8525z
M245.617 210.564c0 -7.64453 -6.19434 -13.8438 -13.8398 -13.8428c-7.64746 0 -13.8486 6.19922 -13.8486 13.8438v114.307c0 7.64453 6.20117 13.8418 13.8486 13.8418c7.64551 0 13.8398 -6.19727 13.8398 -13.8418v-114.308zM294.072 210.564
c0 -7.64453 -6.2002 -13.8438 -13.8486 -13.8438c-7.64551 0 -13.8398 6.19922 -13.8398 13.8438v85.2383c0 7.64258 6.19434 13.8398 13.8398 13.8398c7.64746 0 13.8486 -6.19727 13.8486 -13.8398v-85.2383zM342.521 210.564
c0 -7.64453 -6.19434 -13.8438 -13.8379 -13.8438s-13.8467 6.19922 -13.8467 13.8438v99.7686c0 7.64551 6.20312 13.8447 13.8467 13.8447s13.8379 -6.19922 13.8379 -13.8447v-99.7686zM158.266 35.1826h-0.0800781v0.00976562
c-29.7959 -0.456055 -47.9033 25.626 -48.3662 68.626c-0.304688 29.833 18.1855 46.8877 48.3223 47.6895v0.0117188c0.0439453 0 0.0771484 -0.00976562 0.125977 -0.00976562v0.00976562c0.0175781 0 0.0400391 0 0.0644531 -0.00976562
c0.0136719 0.00976562 0.0419922 0.00976562 0.0556641 0.00976562v-0.00976562c0.0556641 0 0.0927734 0.00976562 0.134766 0.00976562v-0.0117188c30.1309 -0.801758 48.626 -17.8584 48.3213 -47.6895c-0.459961 -43 -18.582 -69.082 -48.376 -68.626v-0.00976562
h-0.0878906h-0.0332031h-0.0136719h-0.0185547h-0.0488281zM353.584 35.1826h-0.0839844v0.00976562c-29.7939 -0.456055 -47.9062 25.626 -48.3691 68.626c-0.297852 29.833 18.1924 46.8877 48.3262 47.6895v0.0117188
c0.0410156 0 0.078125 -0.00976562 0.125 -0.00976562v0.00976562c0.0214844 0 0.0439453 0 0.0683594 -0.00976562c0.0136719 0.00976562 0.0380859 0.00976562 0.0527344 0.00976562v-0.00976562c0.0585938 0 0.0908203 0.00976562 0.137695 0.00976562v-0.0117188
c30.1279 -0.801758 48.626 -17.8584 48.3193 -47.6895c-0.462891 -43 -18.5791 -69.082 -48.376 -68.626v-0.00976562h-0.0849609h-0.0332031h-0.0136719h-0.0214844h-0.046875zM439.457 2.55664c15.6152 -6.20605 15.6191 -61.4941 16.9619 -66.5566h-400.838
c1.3457 5.07422 1.32715 60.3379 16.9355 66.5527l48.4609 19.3291l11.3545 9.55566c2.99707 2.52734 7.41504 2.35254 10.1953 -0.40332l15.8223 -15.6943l15.7783 15.6875c2.7832 2.75977 7.20898 2.94531 10.2021 0.410156l11.3496 -9.55566l48.4619 -19.3252
c5.83691 -2.32129 9.49023 -11.5098 11.8496 -22.3584c2.35547 10.8486 6.00684 20.0254 11.8438 22.3545l48.459 19.3291l11.3564 9.55566c2.99219 2.52734 7.41309 2.35254 10.1904 -0.40332l15.8271 -15.6943l15.7783 15.6875
c2.78223 2.75977 7.20312 2.94531 10.2021 0.410156l11.3477 -9.55566z" />
    <glyph glyph-name="049-pie-chart-2" unicode="&#xf121;" 
d="M176.263 153.228c3.20898 -6.42578 1.94824 -14.1846 -3.13086 -19.2637l-96.627 -96.6279c-7.17773 -7.17773 -19.0371 -6.33789 -25.1377 1.75293c-47.2363 62.6436 -62.4688 143.352 -43.3096 218.025c2.51465 9.80859 13.1543 15.1719 22.5645 11.2754
l126.29 -52.332c6.62598 -2.74609 10.7588 -9.41797 10.2656 -16.5732c-1.11426 -16.1357 1.93066 -31.9277 9.08496 -46.2568zM67.0635 75.1191l74.4053 74.4082c-4.83789 12.7363 -7.47168 26.1484 -7.85449 40.04l-97.2295 40.2891
c-9.05664 -53.9404 1.79199 -108.656 30.6787 -154.737zM220.189 446.537c10.0518 1.39844 19.0078 -6.40918 19.0088 -16.5352v-136.572c0 -7.20801 -4.62598 -13.6025 -11.4717 -15.8574c-15.4473 -5.08984 -28.7002 -14.1328 -39.1387 -26.1465
c-3.24023 -3.72949 -7.87207 -5.74805 -12.6074 -5.74805c-4.70801 0 4.95605 -3.42871 -132.646 53.5918c-9.37793 3.88867 -13.1357 15.1777 -7.99219 23.9043c38.0088 64.4854 104.334 112.113 184.848 123.363zM205.803 304.861v105.119
c-54.6602 -12.458 -100.472 -44.6279 -131.145 -87.5439l97.1943 -40.2764c10.083 9.53906 21.4561 17.1406 33.9502 22.7012zM291.599 446.537c192.867 -26.9531 285.802 -252.309 168.826 -407.444c-6.12109 -8.11816 -17.9863 -8.90625 -25.1377 -1.75293
l-96.6279 96.626c-5.08008 5.08008 -6.3418 12.8408 -3.13086 19.2676c23.8379 47.7285 0.473633 107.22 -51.4648 124.34c-6.84766 2.25586 -11.4727 8.64844 -11.4727 15.8574v136.571c0 10.127 8.96191 17.9385 19.0078 16.5352zM444.716 75.1348
c80.2969 128.57 10.2578 300.888 -138.731 334.847v-105.119c59.793 -26.6064 87.0557 -95.5596 64.3389 -155.335zM411.673 13.7246c7.16406 -7.16113 6.34668 -19.0293 -1.75391 -25.1377c-90.7002 -68.3936 -217.376 -68.376 -308.052 0
c-8.08984 6.10156 -8.9248 17.9678 -1.75293 25.1377l96.6279 96.627c5.08008 5.0791 12.8408 6.34082 19.2656 3.13184c24.8906 -12.4287 54.8838 -12.4277 79.7705 0c6.4248 3.21191 14.1865 1.94824 19.2656 -3.13184zM137.91 4.29688
c71.8223 -44.8525 164.144 -44.8525 235.967 0l-74.3955 74.3926c-28.1768 -10.7041 -59.7959 -10.4014 -87.1777 0z" />
    <glyph glyph-name="030-open-menu" unicode="&#xf10e;" 
d="M203 208h-166c-20.4238 0 -37 16.5762 -37 37v166c-0 20.4238 16.5762 37 37 37h166c20.4238 0 37 -16.5762 37 -37v-166c0 -20.4238 -16.5762 -37 -37 -37zM50 258h140v140h-140v-140zM203 -64h-166c-20.4238 0 -37 16.5762 -37 37v166c-0 20.4238 16.5762 37 37 37h166
c20.4238 0 37 -16.5762 37 -37v-166c0 -20.4238 -16.5762 -37 -37 -37zM50 -14h140v140h-140v-140zM487 -19h-190c-13.7998 0 -25 11.2002 -25 25s11.2002 25 25 25h190c13.7998 0 25 -11.2002 25 -25s-11.2002 -25 -25 -25zM487 81h-190c-13.7998 0 -25 11.2002 -25 25
s11.2002 25 25 25h190c13.7998 0 25 -11.2002 25 -25s-11.2002 -25 -25 -25zM475 208h-166c-20.4238 0 -37 16.5762 -37 37v166c0 20.4238 16.5762 37 37 37h166c20.4238 0 37 -16.5762 37 -37v-166c0 -20.4238 -16.5762 -37 -37 -37zM322 258h140v140h-140v-140z" />
    <glyph glyph-name="051-bar-chart" unicode="&#xf123;" 
d="M494.145 346.154c9.86133 0 17.8555 -7.99414 17.8555 -17.8555v-290.461c0 -9.86133 -7.99414 -17.8545 -17.8555 -17.8545h-94.1914c-9.86133 0 -17.8555 7.99316 -17.8555 17.8545v290.461c0 9.86133 7.99414 17.8555 17.8555 17.8555h94.1914zM476.29 55.6934
v254.751h-58.4824v-254.751h58.4824zM338.732 441.382c9.86035 0 17.8545 -7.99512 17.8545 -17.8555v-385.688c0 -9.86133 -7.99414 -17.8545 -17.8545 -17.8545h-94.1924c-9.8623 0 -17.8555 7.99316 -17.8555 17.8545v385.689c0 9.86035 7.99414 17.8545 17.8555 17.8545
h94.1924zM320.877 55.6934v349.978h-58.4824v-349.978h58.4824zM183.317 298.54c9.86035 0 17.8545 -7.99414 17.8545 -17.8555v-242.847c0 -9.86133 -7.99414 -17.8545 -17.8545 -17.8545h-94.1924c-9.86133 0 -17.8555 7.99316 -17.8555 17.8545v242.847
c0 9.86133 7.99414 17.8555 17.8555 17.8555h94.1924zM165.462 55.6934v207.137h-58.4814v-207.137h58.4814zM494.145 -21.6709c9.86133 0 17.8555 -7.99512 17.8555 -17.8564c0 -9.86035 -7.99414 -17.8545 -17.8555 -17.8545h-476.289
c-9.86133 0 -17.8555 7.99414 -17.8555 17.8545v463.054c0 9.86035 7.99414 17.8555 17.8555 17.8545c9.86035 0 17.8545 -7.99414 17.8545 -17.8545v-445.197h458.435z" />
    <glyph glyph-name="055-seo" unicode="&#xf127;" 
d="M416 374c17.4404 0 32 -14.5596 32 -32s-14.5596 -32 -32 -32s-32 14.5596 -32 32s14.5596 32 32 32zM411.68 294.24l-12.6396 -47.9199c-4.87988 2.23926 -10.0801 3.59961 -15.4404 4.08008l12.5605 47.9199c4.95996 -2.24023 10.1602 -3.60059 15.5195 -4.08008z
M405.6 57.1201c24.6406 -26.4004 -16.3193 -64.6396 -40.96 -38.2402l-53.1992 57.04c-2.64062 2.87988 -2.48047 7.28027 0.319336 9.91992l30.7207 28.6406c2.87988 2.63965 7.2793 2.47949 9.91992 -0.320312zM379.28 234.64c17.3594 0 32 -14.6396 32 -32
c0 -17.4395 -14.6406 -32 -32 -32c-17.4404 0 -32 14.5605 -32 32c0 17.3604 14.5596 32 32 32zM312.32 139.52l15.5996 -16.7197l-23.3604 -21.8398l-15.6797 16.7197c8.48047 6.56055 16.3203 13.8398 23.4404 21.8398zM304.64 177.12
c5.36035 -5.83984 5.76074 -14.7197 0.800781 -20.8799c-9.36035 -11.7598 -20.4004 -22 -32.7207 -30.4805c-6.47949 -4.55957 -15.3594 -3.59961 -20.7197 2.24023l-2.55957 2.71973c-50.4805 -25.3594 -113.36 -13.8398 -151.601 27.6006
c-31.4395 34.1602 -42 84.1602 -27.04 128c24.1602 70.7197 106.72 106.399 174.641 75.1201c68 -31.3604 94.8799 -117.2 56.6396 -181.681zM288 245.04c0 35.8398 -20.5596 69.3604 -52.4805 85.5996c-32.2393 16.4805 -72.2393 12.96 -101.199 -8.7998
c-28.8799 -21.7598 -43.2803 -58.7197 -36.7207 -94.2402c6.40039 -34.8799 32.5605 -64.0801 66.4805 -74.3994c60.7197 -18.4004 123.92 28.4795 123.92 91.8398zM239.92 242.4l31.4404 -7.12012c-0.640625 -5.28027 -1.84082 -10.5605 -3.52051 -15.6006
l-31.4395 7.12012c2 4.95996 3.19922 10.2402 3.51953 15.6006zM192 277.04c17.4404 0 32 -14.5596 32 -32c0 -17.3604 -14.5596 -32 -32 -32s-32 14.6396 -32 32c0 17.4404 14.5596 32 32 32zM175.28 200.08l-16.1602 -27.9199
c-4.87988 2.16016 -9.52051 4.87988 -13.8398 8l16.1602 27.9199c4.0791 -3.44043 8.7998 -6.08008 13.8398 -8zM96 110.8c17.4404 0 32 -14.5596 32 -32c0 -17.4395 -14.5596 -32 -32 -32s-32 14.5605 -32 32c0 17.4404 14.5596 32 32 32z" />
    <glyph glyph-name="067-download" unicode="&#xf133;" 
d="M469.333 106.667c11.7764 0 21.334 -9.55762 21.334 -21.334v-106.666c0 -11.7764 -9.55762 -21.334 -21.334 -21.334h-426.666c-11.7764 0 -21.334 9.55762 -21.334 21.334v106.666c0 11.7764 9.55762 21.334 21.334 21.334c11.7754 0 21.333 -9.55762 21.333 -21.334
v-85.333h384v85.333c0 11.7764 9.55762 21.334 21.333 21.334zM240.917 70.251l-128 128c-3.30566 3.42188 -5.98828 10.0615 -5.98828 14.8203c0 11.7764 9.55762 21.333 21.333 21.333c4.75879 0 11.3984 -2.68262 14.8213 -5.98828l91.584 -91.584v268.501
c0 11.7764 9.55664 21.334 21.333 21.334s21.333 -9.55762 21.333 -21.334v-268.501l91.584 91.584c3.42285 3.30566 10.0625 5.98828 14.8213 5.98828c11.7754 0 21.333 -9.55664 21.333 -21.333c0 -4.75879 -2.68262 -11.3984 -5.98828 -14.8203l-128 -128
c-3.44922 -3.44824 -10.2061 -6.24609 -15.083 -6.24609s-11.6338 2.79785 -15.083 6.24609z" />
    <glyph glyph-name="031-crown" unicode="&#xf10f;" 
d="M256 225.386c27.6182 0 50.0869 -22.4688 50.0869 -50.0869s-22.4688 -50.0869 -50.0869 -50.0869s-50.0869 22.4688 -50.0869 50.0869s22.4688 50.0869 50.0869 50.0869zM256 158.603c9.20605 0 16.6963 7.49023 16.6963 16.6963s-7.49023 16.6963 -16.6963 16.6963
s-16.6963 -7.49023 -16.6963 -16.6963s7.49023 -16.6963 16.6963 -16.6963zM478.609 222.514c19.4316 -6.8916 33.3906 -25.4482 33.3906 -47.2148c0 -21.7646 -13.958 -40.3232 -33.3906 -47.2148v-119.741c0 -9.2207 -7.47656 -16.6953 -16.6963 -16.6953h-411.826
c-9.2207 0 -16.6963 7.47559 -16.6963 16.6953v119.741c-19.4316 6.8916 -33.3906 25.4502 -33.3906 47.2148c0 21.7656 13.959 40.3232 33.3906 47.2139v153.134c0 15.376 19.1338 22.5654 29.2617 10.9941l102.509 -117.153l76.9473 115.42
c6.61328 9.91895 21.1943 9.88477 27.7822 0l76.9482 -115.42l102.509 117.154c10.127 11.5703 29.2617 4.38281 29.2617 -10.9941v-153.134zM50.0869 158.603c9.20605 0 16.6963 7.49023 16.6963 16.6963c0 9.2041 -7.4834 16.6904 -16.6855 16.6963h-0.0107422h-0.0107422
c-9.20117 -0.00683594 -16.6855 -7.49316 -16.6855 -16.6963c0 -9.20605 7.49023 -16.6963 16.6963 -16.6963zM445.217 91.8213h0.000976562v36.2627c-19.4316 6.8916 -33.3906 25.4502 -33.3906 47.2148c0 21.7656 13.958 40.3232 33.3906 47.2148v108.698
l-87.6074 -100.125c-7.2041 -8.22754 -20.3408 -7.44238 -26.457 1.73438l-75.1533 112.727l-75.1514 -112.727c-6.09277 -9.1377 -19.2207 -10.0029 -26.457 -1.73438l-87.6084 100.125v-108.698c19.4316 -6.8916 33.3906 -25.4482 33.3906 -47.2148
c0 -21.7646 -13.958 -40.3232 -33.3906 -47.2148v-36.2627h83.4775c9.22168 0 16.6963 -7.47559 16.6963 -16.6963s-7.47559 -16.6963 -16.6963 -16.6963h-83.4775v-33.3906h378.434v33.3906h-83.4775c-9.22168 0 -16.6963 7.47559 -16.6963 16.6963
s7.47559 16.6963 16.6963 16.6963h83.4775zM461.913 158.603c9.20605 0 16.6963 7.49023 16.6963 16.6963c0 9.2041 -7.4834 16.6904 -16.6855 16.6963h-0.0107422h-0.0107422c-9.20215 -0.00683594 -16.6855 -7.49316 -16.6855 -16.6963
c0 -9.20605 7.49023 -16.6963 16.6963 -16.6963z" />
    <glyph glyph-name="011-megaphone" unicode="&#xf103;" 
d="M467.07 235.422c11.7314 -11.7305 11.7314 -30.6904 0 -42.4229c-11.7012 -11.6992 -30.7227 -11.6992 -42.4229 0l-199.717 199.704c-11.6895 11.7041 -11.6895 30.7314 0 42.4512c11.623 11.5938 30.6738 11.7324 42.4512 -0.015625zM210.115 365.095l186.925 -186.909
l-7.54785 -1.50293c-52.9609 -10.6006 -102.579 -37.0215 -143.351 -71.8154l-108.647 108.647c34.8008 40.7773 60.5312 91.0879 71.1182 144.046zM117.575 191.011l106.062 -106.062l-74.2461 -74.2461c-17.6182 -17.6172 -46.1025 -17.5449 -63.6475 0l-42.4219 42.4219
c-17.6182 17.6182 -17.5449 46.1025 0 63.6475zM128.182 74.335l21.2109 21.2109c5.8584 5.85938 5.8584 15.3525 0 21.2119c-5.85938 5.8584 -15.3525 5.8584 -21.2109 0l-21.2119 -21.2119c-5.8584 -5.8584 -5.8584 -15.3516 0 -21.2109
c5.85938 -5.8584 15.3525 -5.8584 21.2119 0zM286.267 2.7207l16.0107 -15.5127c11.7041 -11.7051 11.7041 -30.7334 0 -42.4365c-11.7236 -11.7256 -30.793 -11.6592 -42.4072 -0.015625l-68.0566 65.9473l42.4238 42.4238l30.4824 -29.5332l20.7422 20.7422
c5.88574 5.91699 5.84473 15.3809 0 21.1963l-18.1006 18.127c7.77832 6.52441 15.7783 12.6377 24.1553 18.2656l15.1562 -15.168c17.5596 -17.5303 17.6182 -46.0146 -0.000976562 -63.6309zM346.864 448c8.29102 0 15 -6.70898 15 -15v-30
c0 -8.29102 -6.70898 -15 -15 -15s-15 6.70898 -15 15v30c0 8.29102 6.70898 15 15 15zM466.865 328c8.29102 0 15 -6.70898 15 -15s-6.70898 -15 -15 -15h-30c-8.29102 0 -15 6.70898 -15 15s6.70898 15 15 15h30zM447.47 413.605
c5.85938 -5.8584 5.85938 -15.3516 0 -21.2109l-30 -30c-5.85938 -5.85938 -15.3516 -5.8584 -21.2109 0c-5.85938 5.85938 -5.85938 15.3525 0 21.2109l30 30c5.85938 5.85938 15.3525 5.85938 21.2109 0z" />
    <glyph glyph-name="098-work" unicode="&#xf13c;" horiz-adv-x="511" 
d="M0 -25.5996c0 7.06543 5.73438 12.7998 12.8008 12.7998h22.5791l-35.0723 163.84c-0.142578 0.699219 -0.258789 1.84668 -0.258789 2.55957c0 7.03906 5.71289 12.7734 12.752 12.8008h87.1416c17.0908 15.9316 48.9971 34.7178 71.2197 41.9326
c-31.0186 18.5098 -56.1924 62.8477 -56.1924 98.9688c0 63.6182 51.6328 115.251 115.251 115.251c63.6191 0 115.252 -51.6328 115.252 -115.251c0 -36.1211 -25.1738 -80.459 -56.1924 -98.9688c73.4609 -23.6846 133.099 -105.549 133.12 -182.733v-38.3994h12.7998
c7.06543 0 12.7998 -5.73438 12.7998 -12.7998c0 -7.06641 -5.73438 -12.8008 -12.7998 -12.8008h-422.399c-7.06641 0 -12.8008 5.73438 -12.8008 12.8008zM140.801 307.2c0.0556641 -49.4033 40.1963 -89.5439 89.5996 -89.6006c49.459 0 89.5996 40.1416 89.5996 89.6006
s-40.1406 89.5996 -89.5996 89.5996s-89.5996 -40.1406 -89.5996 -89.5996zM230.4 192h-0.292969c-26.4414 0 -66.0381 -11.4688 -88.3857 -25.5996h127.079h0.0351562c5.76074 0 11.3418 -4.58789 12.457 -10.2402l36.1475 -168.96h79.3604v38.3994
c0 91.8535 -74.5479 166.4 -166.4 166.4zM258.458 140.8h-229.837l32.8193 -153.6h229.939zM153.601 12.7998c-28.2627 0 -51.2002 22.9375 -51.2002 51.2002s22.9375 51.2002 51.2002 51.2002c28.2617 0 51.2002 -22.9375 51.2002 -51.2002
s-22.9385 -51.2002 -51.2002 -51.2002zM153.601 89.5996c-14.1318 0 -25.6006 -11.4688 -25.6006 -25.5996s11.4688 -25.5996 25.6006 -25.5996c14.1309 0 25.5996 11.4688 25.5996 25.5996s-11.4688 25.5996 -25.5996 25.5996z" />
    <glyph glyph-name="065-business-strategy-1" unicode="&#xf131;" 
d="M446.72 303.76c1.68066 -10.3994 1.68066 -21.1201 0 -31.5117l-0.55957 -3.2002h-17.7598c-1.91992 -7.59961 -4.87207 -14.8799 -8.95996 -21.5996l12.5596 -12.5684l-1.91992 -2.72754c-6.08008 -8.55273 -13.6797 -16.1523 -22.2402 -22.2324l-2.71973 -1.91992
l-12.5518 12.5596c-6.7207 -4.08789 -14 -7.04004 -21.6006 -8.95996v-17.7598l-3.2002 -0.55957c-10.3994 -1.68066 -21.1191 -1.68066 -31.5117 0l-3.2002 0.55957v17.7598c-7.59961 1.91992 -14.8799 4.87207 -21.5996 8.95996l-12.5762 -12.5596l-2.72754 1.91992
c-8.55273 6.08008 -16.1523 13.6797 -22.2324 22.2402l-1.91992 2.71973l12.5596 12.5518c-4.08789 6.7207 -7.04004 14 -8.95996 21.6006h-17.7598l-0.55957 3.2002c-1.44043 9.11914 -1.68066 18.4795 -0.560547 27.5996
c0.167969 1.27148 0.400391 2.63184 0.560547 3.91211l0.55957 3.2002h17.7598c1.91992 7.59961 4.87207 14.8799 8.95996 21.5996l-12.5596 12.5762l1.91992 2.72754c6.08008 8.55273 13.6797 16.1523 22.2402 22.2324l2.71973 1.91992l12.5518 -12.5596
c6.7207 4.08789 14 7.04004 21.6006 8.95996v17.7598l3.2002 0.55957c10.3994 1.68066 21.1191 1.68066 31.5117 0l3.2002 -0.55957v-17.7598c7.59961 -1.91992 14.8799 -4.87207 21.5996 -8.95996l12.5762 12.5596l2.72754 -1.91992
c8.55273 -6.08008 16.1523 -13.6797 22.2324 -22.2402l1.91992 -2.71973l-12.5596 -12.5518c4.08789 -6.7207 7.04004 -14 8.95996 -21.6006h17.7598zM362.56 242.48c23.1924 5.36719 38.96 28.2393 35.7607 51.8398c-3.44043 25.1992 -27.4404 43.4395 -52.6406 40
c-27.6797 -3.91992 -46.2393 -32.0801 -38.6396 -58.96c6.63965 -23.6807 31.5195 -38.4805 55.5195 -32.8799zM386.96 184h52.8799c-1.51953 -35.4404 -13.2803 -69.6797 -33.9199 -98.6396c-15.8398 9.51953 -32.8799 17.04 -50.6396 22.3193
c0.719727 3.04004 1.43945 6 2.08008 9.04004c4.31934 19.7607 6.87988 39.8398 7.67969 60c1.75977 0.240234 3.51953 0.560547 5.28027 0.879883c5.59961 0.800781 11.1201 1.76074 16.6396 2.7207v3.67969zM396.08 72.6396
c-23.1924 -27.1992 -53.9199 -47.1201 -88.2324 -57.1992c20.4004 21.7676 35.1924 48.168 43.1201 76.8799c15.752 -4.7207 30.8721 -11.3604 45.1123 -19.6807zM348.96 176c-0.807617 -18.7998 -3.2002 -37.6797 -7.2002 -56.0801
c-0.55957 -2.63965 -1.2002 -5.28027 -1.83984 -7.91992c-16.6396 4.08008 -33.5996 6.95996 -50.6396 8.40039c-6.64062 0.639648 -13.2803 1.04004 -20 1.2793l-1.60059 9.28027h-3.67969v53.04h53.04v-3.67969c10.5596 -1.76074 21.2002 -4 31.9199 -4.32031z
M335.6 96.5596c-11.1992 -33.9199 -31.8398 -80.7197 -71.5996 -87.8398v52.3203h3.67969l2.80078 16.5596c0.239258 1.60059 0.487305 3.19238 0.639648 4.87207c0.959961 7.68066 1.12793 15.3682 0.488281 23.1279c5.35938 -0.239258 10.7197 -0.55957 16.0801 -1.04004
c16.1514 -1.51953 32.1514 -4.15918 47.9111 -8zM254.72 111.76c1.44043 -9.12012 1.68066 -18.4795 0.560547 -27.5996c-0.167969 -1.27246 -0.400391 -2.63184 -0.560547 -3.91211l-0.55957 -3.2002h-17.7598c-1.91992 -7.59961 -4.87207 -14.8799 -8.95996 -21.5996
l12.5596 -12.5684l-1.91992 -2.72754c-6.08008 -8.55273 -13.6797 -16.1523 -22.2402 -22.2324l-2.71973 -1.91992l-12.5518 12.5596c-6.7207 -4.08789 -14 -7.04004 -21.6006 -8.95996v-17.7598l-3.2002 -0.55957c-10.3994 -1.68066 -21.1191 -1.68066 -31.5117 0
l-3.2002 0.55957v17.7598c-7.59961 1.91992 -14.8799 4.87207 -21.5996 8.95996l-12.5762 -12.5596l-2.72754 1.91992c-8.55273 6.08008 -16.1523 13.6797 -22.2324 22.2402l-1.91992 2.71973l12.5596 12.5518c-4.08789 6.7207 -7.04004 14 -8.95996 21.6006h-17.7598
l-0.55957 3.2002c-1.68066 10.3994 -1.68066 21.1191 0 31.5117l0.55957 3.2002h17.7598c1.91992 7.59961 4.87207 14.8799 8.95996 21.5996l-12.5596 12.5762l1.91992 2.72754c6.08008 8.55273 13.6797 16.1523 22.2402 22.2324l2.71973 1.91992l12.5518 -12.5596
c6.7207 4.08789 14 7.04004 21.6006 8.95996v17.7598l3.2002 0.55957c10.3994 1.68066 21.1191 1.68066 31.5117 0l3.2002 -0.55957v-17.7598c7.59961 -1.91992 14.8799 -4.87207 21.5996 -8.95996l12.5762 12.5596l2.72754 -1.91992
c8.55273 -6.08008 16.1523 -13.6797 22.2324 -22.2402l1.91992 -2.71973l-12.5596 -12.5518c4.08789 -6.7207 7.04004 -14 8.95996 -21.6006h17.7598zM189.84 60.0801c20.7197 17.2002 22.3125 49.2803 3.67969 68.4883c-16.6396 17.1201 -44.4072 18.7197 -62.96 3.75977
c-19.1279 -15.5205 -22.8076 -44.2402 -8.16797 -64.0801c15.7686 -21.2881 47.0488 -25.0479 67.4482 -8.16797zM248 253.04v-53.04h-53.04v3.67969c-10.5596 1.76074 -21.2002 4 -31.9199 4.32031c0.807617 18.7998 3.2002 37.6797 7.2002 56.0801
c0.551758 2.63965 1.19141 5.28027 1.83203 7.91992c16.6396 -4.08008 33.5996 -6.95996 50.6396 -8.40039c6.63965 -0.639648 13.2803 -1.04004 20 -1.2793l1.59961 -9.28027h3.68848zM248 375.28v-52.3203h-3.67969l-2.80078 -16.5596
c-0.239258 -1.60059 -0.487305 -3.19238 -0.639648 -4.87207c-0.959961 -7.68066 -1.12793 -15.3682 -0.488281 -23.1279c-5.35938 0.239258 -10.7197 0.55957 -16.0801 1.04004c-16.168 1.51953 -32.168 4.16797 -47.9199 8
c11.208 33.9199 31.8486 80.7197 71.6084 87.8398zM204.16 368.56c-20.4004 -21.7676 -35.1924 -48.168 -43.1201 -76.8799c-15.7598 4.7207 -30.8799 11.3604 -45.1201 19.6807c23.2002 27.1992 53.9199 47.1201 88.2402 57.1992zM156.72 276.32
c-0.719727 -3.04004 -1.43945 -6 -2.08008 -9.04004c-4.31934 -19.7607 -6.87988 -39.8398 -7.67969 -60c-1.75977 -0.240234 -3.51953 -0.560547 -5.28027 -0.879883c-5.59961 -0.800781 -11.1201 -1.76074 -16.6396 -2.7207v-3.67969h-52.8799
c1.51953 35.4404 13.2803 69.6797 33.9199 98.6396c15.8398 -9.51953 32.8799 -17.04 50.6396 -22.3193z" />
    <glyph glyph-name="107-headphones" unicode="&#xf145;" 
d="M85.2803 38.4004c-28.2627 0 -51.2002 22.9375 -51.2002 51.1992v102.4c0 9.4502 7.66992 17.1201 17.1201 17.1201h34.0801v0c28.2617 0 51.2002 -22.9375 51.2002 -51.2002v-68.3203c0 -28.2617 -22.9385 -51.1992 -51.2002 -51.1992zM68.1602 175.04v-85.4404
c0.828125 -8.53711 8.46191 -15.4668 17.04 -15.4668c8.57715 0 16.2119 6.92969 17.04 15.4668v68.3203c0 9.4502 -7.66992 17.1201 -17.1201 17.1201h-16.96zM53.9199 243.36h-2.71973c-7.89844 1.31445 -14.3096 8.87988 -14.3096 16.8877
c0 0.775391 0.102539 2.02637 0.229492 2.79199c17.252 102.087 115.282 184.94 218.817 184.94c50.7139 0 120.988 -29.0938 156.862 -64.9404c27.7012 -27.585 55.3701 -81.2734 61.7598 -119.84c0.334961 -1.22363 0.605469 -3.24512 0.605469 -4.5127
c0 -9.4502 -7.66895 -17.1201 -17.1191 -17.1201c-8.86816 0 -16.5225 7.18262 -17.0859 16.0322c-14.627 86.2842 -97.5254 156.312 -185.04 156.312s-170.413 -70.0273 -185.04 -156.312c-1.34082 -7.86035 -8.90137 -14.2402 -16.876 -14.2402
c-0.0234375 0 -0.0605469 0.000976562 -0.0839844 0.000976562zM185.6 345.6c-9.11426 0.324219 -16.5117 7.98926 -16.5117 17.1094c0 5.50391 3.88477 12.1748 8.67188 14.8906c20.3467 10.2832 55.3623 18.6289 78.1602 18.6289s57.8135 -8.3457 78.1602 -18.6289
c5.37207 -2.56934 9.73242 -9.48828 9.73242 -15.4434c0 -9.4502 -7.66992 -17.1201 -17.1201 -17.1201c-2.5498 0 -6.4082 1.04102 -8.6123 2.32422c-16.2402 8.3252 -44.2305 15.0811 -62.4805 15.0811c-18.249 0 -46.2402 -6.75586 -62.4795 -15.0811
c-1.96191 -0.97168 -5.33105 -1.75977 -7.52051 -1.76074zM460.96 209.12c9.3623 -0.0878906 16.96 -7.75684 16.96 -17.1191v-0.000976562v-136.64c-0.0878906 -46.9873 -38.293 -85.1924 -85.2803 -85.2803h-88.6396
c-6.65527 -18.8564 -28.2852 -34.1602 -48.2812 -34.1602c-28.2627 0 -51.2002 22.9375 -51.2002 51.2002s22.9375 51.2002 51.2002 51.2002c19.9961 0 41.626 -15.3037 48.2812 -34.1602h88.6396c21.0107 0.0683594 42.873 16.4834 48.8008 36.6396
c-3.96484 -1.26758 -10.5586 -2.34277 -14.7207 -2.39941c-28.2617 0 -51.2002 22.9375 -51.2002 51.1992v68.3203c0 28.2627 22.9385 51.2002 51.2002 51.2002h34.2402zM256 -29.9199c9.4502 0 17.1201 7.66992 17.1201 17.1201s-7.66992 17.1201 -17.1201 17.1201
s-17.1201 -7.66992 -17.1201 -17.1201s7.66992 -17.1201 17.1201 -17.1201v0zM443.84 89.5996l0.160156 85.4404h-17.1201c-9.4502 0 -17.1201 -7.66992 -17.1201 -17.1201v-68.3203c0.828125 -8.53711 8.46289 -15.4668 17.04 -15.4668
c8.57812 0 16.2119 6.92969 17.04 15.4668z" />
    <glyph glyph-name="038-business-and-finance" unicode="&#xf116;" 
d="M423.467 338.134h-418.134v104.533h418.134v-104.533zM26.667 359.467h375.467v61.8662h-375.467v-61.8662zM57.5996 401.066h21.334v-21.333h-21.334v21.333zM99.2002 401.066h21.333v-21.333h-21.333v21.333zM140.8 401.066h21.334v-21.333h-21.334v21.333z
M334.934 93.8662c-40.5332 0 -78.9336 22.4004 -99.2002 57.6006c-33.0664 55.4668 -13.8672 125.866 41.5996 156.8c17.0674 9.59961 37.334 14.9336 57.6006 14.9336c40.5332 0 78.9326 -22.4004 99.2002 -57.6006c14.9326 -26.666 19.1992 -57.5996 11.7324 -87.4658
c-7.46582 -29.8672 -26.666 -54.4004 -53.333 -69.334c-18.1328 -9.59961 -38.3994 -14.9336 -57.5996 -14.9336zM333.866 302.934c-16 0 -33.0664 -4.2666 -46.9326 -12.7998c-44.7998 -25.6006 -60.7998 -83.2002 -34.1338 -128
c17.0664 -28.8008 48 -46.9336 81.0664 -46.9336c16 0 33.0674 4.2666 46.9336 12.7998c21.334 12.7998 37.334 33.0664 43.7334 57.5996c6.40039 24.5342 3.2002 49.0674 -9.59961 71.4668c-16 27.7334 -46.9336 45.8672 -81.0674 45.8672zM465.066 -58.667
c-14.9326 0 -28.7998 8.5332 -36.2666 21.334l-67.2002 116.267l13.8672 3.2002c9.59961 2.13281 18.1328 5.33301 26.667 10.666c8.5332 4.2666 16 10.667 22.3994 18.1338l9.60059 10.666l67.1992 -117.333c5.33398 -9.59961 7.4668 -21.333 4.2666 -32
c-3.19922 -10.667 -9.59961 -20.2666 -19.1992 -25.5996c-7.4668 -3.2002 -13.8672 -5.33398 -21.334 -5.33398zM393.6 65.0664l53.334 -91.7334c3.2002 -6.39941 10.666 -10.666 18.1328 -10.666c3.2002 0 7.4668 1.06641 10.667 3.19922
c5.33301 3.2002 8.5332 7.4668 9.59961 12.8008c1.06738 5.33301 1.06738 10.666 -2.13281 16l-53.334 91.7334c-5.33301 -4.2666 -10.666 -8.53418 -17.0664 -11.7334c-6.39941 -4.2666 -12.7998 -7.4668 -19.2002 -9.60059zM341.333 45.8662h-336v313.601h407.467v-21.333
h-386.133v-270.934h314.666v-21.334z" />
    <glyph glyph-name="108-menu-1" unicode="&#xf146;" 
d="M480 -0.000976562h-448c-17.6738 0 -32 14.3281 -32 32.001c0 17.6719 14.3262 32 32 32h448.001c17.6729 0 32 -14.3281 32 -32c-0.000976562 -17.6729 -14.3271 -32.001 -32.001 -32.001zM480 160h-448c-17.6738 0 -32 14.3271 -32 31.999
c0 17.6729 14.3262 32.001 32 32.001h448.001c17.6729 0 32 -14.3271 32 -32.001s-14.3271 -31.999 -32.001 -31.999zM480 320h-448c-17.6738 0 -32 14.3262 -32 32c0 17.6748 14.3262 32.001 32 32.001h448.001c17.6729 0 32 -14.3262 32 -32.001
c0 -17.6738 -14.3271 -32 -32.001 -32z" />
    <glyph glyph-name="016-target-1" unicode="&#xf108;" 
d="M240 432.011c36.8145 0 71.6992 -8.33008 102.891 -23.1719l-23.8125 -23.8281c-4.52539 -4.49902 -7.07715 -10.6348 -7.07812 -17.0156v-6.625c-22.124 9.43457 -46.4551 14.6562 -72 14.6562c-101.525 0 -184.016 -82.4902 -184.016 -184.016
s82.4902 -184.016 184.016 -184.016s184.016 82.4902 184.016 184.016c0 25.54 -5.22559 49.8643 -14.6562 71.9844h6.625c6.38086 0.000976562 12.5166 2.55371 17.0156 7.07812l23.8281 23.8281c14.8418 -31.1914 23.1719 -66.0762 23.1719 -102.891
c0 -132.453 -107.546 -240 -240 -240c-132.453 0 -240 107.547 -240 240c0 132.454 107.547 240 240 240zM391.781 432.011l0.000976562 0.0136719c0.0556641 0.000976562 0.146484 0.00195312 0.203125 0.00195312c4.39941 0 7.98438 -3.57129 8 -7.9707v-36.7656
l6.36035 6.35938c4.8418 4.84082 11.2451 7.26562 17.6562 7.26562c6.41016 0 12.8291 -2.42383 17.6719 -7.26562c9.68164 -9.68457 9.63574 -25.5977 -0.0488281 -35.2812l-6.375 -6.375h36.7188c4.41504 -0.00195312 7.99805 -3.58594 7.99805 -8.00098
c0 -1.82129 -1.04199 -4.34766 -2.32617 -5.63965l-55.9844 -55.9844c-1.29492 -1.30176 -3.83594 -2.3584 -5.67188 -2.3584h-52.7188l-105.625 -105.625c-9.68359 -9.69824 -25.5967 -9.74414 -35.2812 -0.0605469c-9.68359 9.68457 -9.68359 25.6445 0 35.3281
l105.641 105.641v52.7031c0 1.83594 1.05762 4.37695 2.35938 5.67188l55.9844 55.9844c1.24121 1.24902 3.67676 2.30566 5.4375 2.3584zM240 320.042c20.3809 0 39.5889 -4.91309 56.7031 -13.4219l-43.8438 -43.8438
c-4.17969 0.759766 -8.46484 1.21875 -12.8594 1.21875c-39.6699 0 -71.9844 -32.3145 -71.9844 -71.9844s32.3145 -71.9844 71.9844 -71.9844s71.9844 32.3145 71.9844 71.9844c0 4.39453 -0.459961 8.67969 -1.21875 12.8594l43.8281 43.8281
c8.49023 -17.1133 13.375 -36.3193 13.375 -56.6875c0 -70.5977 -57.3711 -127.969 -127.969 -127.969s-128.031 57.3711 -128.031 127.969s57.4336 128.031 128.031 128.031z" />
    <glyph glyph-name="057-target-2" unicode="&#xf129;" 
d="M448 338.72l-32 -32h-45.2803v45.2803l32 32v-45.2803h45.2803zM366.08 290.72l-138.08 -138.08c0.55957 -10.5596 -12.4805 -16.6396 -20.2402 -9.35938c-7.91992 7.51953 -2 21.2793 8.87988 20.7197l138.08 138.08v-11.3604h11.3604zM333.36 235.44
c44.6396 -62.8008 30.6396 -152.48 -30.96 -198.641c-54.8809 -41.2002 -133.44 -37.1201 -183.92 9.2002c-55.2803 50.7998 -61.5205 138.4 -14.3203 196.72c47.2002 58.3203 134.16 70.0801 195.28 26.6406l-17.2803 -17.2803
c-64 42.3203 -153.44 12.4795 -179.192 -59.7598c-25.6797 -71.8398 24.1602 -151.44 100.08 -159.681c41.8398 -4.47949 84 13.8408 109.12 47.6006c29.9199 40.1602 31.5205 96.1602 3.91992 137.92zM304.56 206.56c32.1602 -52.1592 10.8721 -123.119 -44.7197 -148.88
c-32.8799 -15.2793 -72.1602 -12.0801 -102.24 8.24023c-29.8398 20.2402 -47.2793 55.3604 -45.5195 91.3604c1.83984 36.6396 23.6797 70.3994 56.2402 87.2002c32.1602 16.4795 71.5195 15.0391 102.239 -3.9209l-16.0791 -16.1592
c-32.1602 17.1191 -73.04 10.4795 -98.0801 -16.0801c-25.2803 -26.7207 -29.4404 -68.1602 -10.1602 -99.4404c19.3594 -31.3604 58.5596 -46.0801 93.7598 -35.2803c38.6396 11.8408 63.4404 51.5205 56.96 91.6006c-1.44043 8.7998 -4.32031 17.3594 -8.55957 25.2803z
M276.48 178.48c14.0879 -32.0801 -0.232422 -70.7207 -31.7607 -85.9209c-27.4395 -13.2793 -61.4395 -5.51953 -80.3994 18.4004s-18.8799 58.6396 0.239258 82.4004c18.4004 22.96 50.96 30.8799 77.9209 19.1201l-17.3604 -17.4404
c-40.4805 8.55957 -69.4404 -40.96 -42.1602 -72.0801c29.04 -33.2002 85.2803 -5.2002 76.0801 38.1602z" />
    <glyph glyph-name="063-refresh-1" unicode="&#xf12f;" 
d="M342.146 251.917c-0.450195 1.08301 -0.81543 2.91309 -0.81543 4.08496c0 2.43945 1.40137 5.81641 3.12793 7.53906l40.3633 40.3652c-28.1787 32.4355 -85.9199 58.7607 -128.887 58.7607c-94.2432 0 -170.73 -76.4873 -170.73 -170.73
s76.4873 -170.731 170.73 -170.731c94.2441 0 170.731 76.4883 170.731 170.731v0.0634766c0 5.8877 4.77832 10.667 10.666 10.667h42.667c5.8877 0 10.667 -4.7793 10.667 -10.667v-0.129883c0 -129.464 -105.072 -234.537 -234.537 -234.537
c-129.464 0 -234.536 105.073 -234.536 234.537s105.072 234.536 234.536 234.536c57.4785 0 135.414 -34.6006 173.964 -77.2344l42.3652 42.3691c1.72461 1.72461 5.10254 3.12305 7.54102 3.12305c5.88672 0 10.665 -4.77734 10.667 -10.6641v-128
c0 -5.8877 -4.7793 -10.667 -10.667 -10.667h-128c-3.93359 0 -8.34766 2.9502 -9.85352 6.58398z" />
    <glyph glyph-name="104-localization" unicode="&#xf142;" 
d="M102.43 305.41c-0.601562 59.2871 32.2617 90.0459 91.6211 90.0459c60.6455 0 91.582 -30.7568 91.582 -90.0459c0 -133.295 -91.582 -129.569 -91.582 -129.569c-56.251 -0.857422 -90.7529 48.3945 -91.6211 129.569zM267.293 149.601
c10.7051 -38.3975 33.3828 -76.1143 53.2725 -104.105c17.2031 -24.2295 34.3604 -44.2744 45.8574 -56.9482h-366.423c2.5293 9.56934 2.50195 113.938 31.9727 125.664l91.5049 36.4922l21.4277 18.0537c5.66113 4.76074 14.0107 4.4375 19.2607 -0.769531
l29.8809 -29.6436l29.7852 29.6182c5.24707 5.23242 13.6133 5.58105 19.2715 0.792969l21.4258 -18.0527zM398.819 -11.4561c-1.79102 0 -3.49707 0.740234 -4.72266 2.04492c-10.3994 11.0508 -30.9062 33.9062 -51.5059 62.9043
c-25.9863 36.5605 -56.9619 90.1641 -56.9619 137.958c0 62.4053 50.7773 113.184 113.19 113.184c62.4082 0 113.181 -50.7793 113.181 -113.184c0 -47.7529 -30.9287 -101.337 -56.8818 -137.859c-20.6113 -29.0293 -41.167 -51.9395 -51.5762 -63.0029
c-1.2334 -1.30469 -2.9375 -2.04492 -4.72266 -2.04492zM329.707 192.916c0 -38.1006 31.0127 -69.1084 69.1123 -69.1094c38.1025 0 69.1055 31.0088 69.1055 69.1094c0 38.1201 -31.0029 69.1221 -69.1055 69.1221c-38.0996 0 -69.1123 -31.002 -69.1123 -69.1221z" />
    <glyph glyph-name="005-right-arrow" unicode="&#xf100;" 
d="M409.6 294.4l102.4 -102.4l-102.4 -102.4l-35.8398 35.8408l40.96 40.96h-414.72v51.1992h414.72l-40.96 40.96z" />
    <glyph glyph-name="069-chat" unicode="&#xf135;" 
d="M457.143 447.998c30.2969 0 54.8574 -24.5605 54.8574 -54.8574v-292.571c0 -30.2969 -24.5605 -54.8574 -54.8574 -54.8574h-200.21l-116.699 -105.015c-3.87598 -3.48828 -9.05762 -5.15723 -14.2412 -4.58496c-10.0381 1.10938 -17.2764 10.1445 -16.168 20.1826
l9.94727 89.417h-64.9141c-30.2969 0 -54.8574 24.5605 -54.8574 54.8574v292.571c0 30.2969 24.5605 54.8574 54.8574 54.8574h402.285z" />
    <glyph glyph-name="036-portfolio" unicode="&#xf114;" 
d="M428.522 342.261c46.0293 0 83.4775 -37.4492 83.4766 -83.4775v-233.739c0 -46.0303 -37.4482 -83.4775 -83.4775 -83.4775h-345.044c-46.0293 0 -83.4775 37.4473 -83.4775 83.4775v233.739c0 46.0283 37.4482 83.4775 83.4775 83.4775h50.0879v50.0869
c0 27.6182 22.4688 50.0869 50.0869 50.0869h144.695c27.6182 0 50.0869 -22.4688 50.0869 -50.0869v-50.0869h50.0879zM166.957 392.348v-50.0869h178.088v50.0869c0 9.20605 -7.49023 16.6963 -16.6963 16.6963h-144.695c-9.20605 0 -16.6963 -7.49023 -16.6963 -16.6963z
M478.609 25.043h-0.00195312v133.611c-13.9629 -10.5049 -31.3096 -16.7412 -50.0879 -16.7412h-125.306c-6.8916 -19.4316 -25.4502 -33.3906 -47.2148 -33.3906s-40.3232 13.958 -47.2148 33.3906h-125.307c-18.7773 0 -36.125 6.23633 -50.0869 16.7412v-133.611
c0 -27.6182 22.4697 -50.0869 50.0869 -50.0869h345.045c27.6172 0 50.0869 22.4688 50.0869 50.0869zM239.304 158.609c0 -9.20605 7.49023 -16.6963 16.6953 -16.6963c9.20605 0 16.6963 7.49023 16.6963 16.6963v16.6953h-33.3916v-16.6953zM478.609 225.391
h-0.000976562v33.3916c0 27.6182 -22.4697 50.0869 -50.0869 50.0869h-345.044c-27.6172 0 -50.0869 -22.4688 -50.0869 -50.0869v-33.3916c0 -27.6172 22.4697 -50.0869 50.0869 -50.0869h122.435v16.6963c0 9.2207 7.47559 16.6963 16.6963 16.6963h66.7822
c9.22168 0 16.6963 -7.47656 16.6963 -16.6963v-16.6963h122.436c27.6172 0 50.0869 22.4697 50.0869 50.0869z" />
    <glyph glyph-name="028-trust" unicode="&#xf10c;" 
d="M269.312 442.086c24.0342 -16.4844 80.3164 -55.0859 166.688 -55.0859c8.28418 0 15 -6.71582 15 -15v-128.754c0 -130.486 -74.2051 -248.617 -188.292 -305.663c-2.11133 -1.05469 -4.41016 -1.58301 -6.70801 -1.58301s-4.59668 0.527344 -6.70801 1.58301
c-116.693 58.3477 -188.292 178.111 -188.292 305.663v128.754c0 8.28418 6.71582 15 15 15c86.3535 0 142.626 38.5869 166.655 55.0654c1.88672 1.29395 3.5625 2.44238 5.02344 3.41699c5.03809 3.35742 11.6035 3.35742 16.6416 0
c1.44824 -0.967773 3.11328 -2.1084 4.99121 -3.39648zM128.846 361.581c-11.9336 -2.09277 -24.5518 -3.57617 -37.8457 -4.21875v-42.7891l263.544 -263.544c12.6104 16.2051 23.626 33.627 32.875 51.9785zM256 -32.123c29.71 15.7969 56.2744 36.3018 78.959 60.3125
l-243.959 243.959v-28.9014c0 -114.695 64.5195 -221.943 165 -275.37zM421 243.246v114.116c-83.0225 4.01758 -139.994 40.4619 -165.001 57.4824c-16.9062 -11.5059 -48.4756 -31.9092 -92.8379 -45.1523l237.258 -237.259
c13.3584 34.9502 20.5811 72.4639 20.5811 110.812z" />
    <glyph glyph-name="113-network" unicode="&#xf14a;" 
d="M74.8047 415.939c23.4756 0 42.7031 -19.2695 42.7031 -42.7441c0 -7.88672 -2.20605 -15.2686 -5.97852 -21.6279l24.3613 -24.3613c32.3691 28.8184 74.8271 45.9824 120.502 46.0098c46.2666 0.0273438 88.5195 -17.3594 120.617 -45.9268l24.2773 24.2783
c-3.77246 6.35938 -5.97852 13.7412 -5.97852 21.6279c0 23.4746 19.2285 42.7441 42.7031 42.7441s42.7441 -19.2695 42.7441 -42.7441c0 -23.4756 -19.2695 -42.7031 -42.7441 -42.7031c-7.88672 0 -15.2676 2.20605 -21.6279 5.97852l-24.2881 -24.2881
c28.543 -32.0986 45.9268 -74.3408 45.9268 -120.586c0 -46.252 -17.3887 -88.4873 -45.9375 -120.585l24.2988 -24.2988c6.36035 3.77246 13.7412 5.97852 21.6279 5.97852c23.4746 0 42.7441 -19.2285 42.7441 -42.7031s-19.2695 -42.7441 -42.7441 -42.7441
s-42.7031 19.2695 -42.7031 42.7441c0 7.88672 2.20605 15.2676 5.97852 21.6279l-24.2988 24.2988c-32.0928 -28.5596 -74.3252 -45.9551 -120.585 -45.9375c-45.6797 0.0185547 -88.1582 17.1611 -120.544 45.9688l-24.3301 -24.3301
c3.77246 -6.36035 5.97852 -13.7412 5.97852 -21.6279c0 -23.4746 -19.2275 -42.7441 -42.7031 -42.7441c-23.4746 0 -42.7441 19.2695 -42.7441 42.7441s19.2695 42.7031 42.7441 42.7031c7.88672 0 15.2686 -2.20605 21.6279 -5.97852l24.3408 24.3398
c-18.7812 21.1348 -32.835 46.8076 -40.1885 75.5879c-0.222656 0.788086 -0.40332 2.09082 -0.40332 2.90918c0 5.89844 4.78613 10.6846 10.6846 10.6846c4.70703 0 9.37402 -3.72461 10.418 -8.31445c18.1289 -70.9492 81.8975 -120.547 155.119 -120.575
c88.626 -0.0341797 160.252 71.6211 160.252 160.252c0 88.6318 -71.6182 160.305 -160.241 160.252c-73.1992 -0.0429688 -136.942 -49.6631 -155.057 -120.596c-1.04395 -4.58984 -5.71191 -8.31445 -10.4189 -8.31445c-5.89746 0 -10.6846 4.78613 -10.6846 10.6846
c0 0.818359 0.181641 2.12109 0.404297 2.90918c7.34668 28.7666 21.3828 54.4336 40.1465 75.5664l-24.3721 24.3721c-6.35938 -3.77246 -13.7412 -5.97852 -21.6279 -5.97852c-23.4746 0 -42.7441 19.2275 -42.7441 42.7031c0 23.4746 19.2695 42.7441 42.7441 42.7441z
M74.8047 394.572c-11.9268 0 -21.377 -9.4502 -21.377 -21.377c0 -11.9277 9.4502 -21.3252 21.377 -21.3252c11.9277 0 21.3252 9.39746 21.3252 21.3252c0 11.9268 -9.39746 21.377 -21.3252 21.377zM438.012 394.572c-11.9277 0 -21.3779 -9.4502 -21.3779 -21.377
c0 -11.9277 9.4502 -21.3252 21.3779 -21.3252c11.9268 0 21.3672 9.39746 21.3672 21.3252c0 11.9268 -9.44043 21.377 -21.3672 21.377zM256.382 330.492c76.5781 0 138.927 -62.2969 138.927 -138.874c0 -76.5781 -62.3486 -138.927 -138.927 -138.927
c-76.5771 0 -138.874 62.3486 -138.874 138.927c0 76.5771 62.2969 138.874 138.874 138.874zM267.076 306.34v-50.1309c10.6836 0.979492 21.1104 3.42773 31.0283 7.20898c-1.82031 4.99805 -3.77344 9.75781 -5.91602 14.043
c-7.52539 15.0508 -16.3584 24.5498 -25.1123 28.8789zM245.699 306.329c-8.73828 -4.33203 -17.5596 -13.8242 -25.0811 -28.8682c-2.14453 -4.28809 -4.09473 -9.05078 -5.91602 -14.0537c9.90625 -3.77246 20.3271 -6.21973 30.9971 -7.19824v50.1201zM208.4 298.911
c-9.61816 -4.29492 -18.5586 -9.81445 -26.5938 -16.4111c4.32031 -3.55859 8.87305 -6.7832 13.6152 -9.6709c1.8877 4.95117 3.88477 9.75195 6.11328 14.21c2.09766 4.19336 4.42871 8.11133 6.86523 11.8721zM304.405 298.901
c2.4375 -3.75977 4.7793 -7.66992 6.87598 -11.8623c2.22363 -4.44824 4.21777 -9.23926 6.10352 -14.1787c4.73535 2.88574 9.28027 6.09473 13.5938 9.65039c-8.02832 6.58594 -16.9658 12.0986 -26.5732 16.3906zM346.231 267.456
c-6.93848 -5.90332 -14.4004 -11.0742 -22.2744 -15.4727c3.86914 -15.2578 6.27539 -31.9863 6.96973 -49.6826h42.5039c-2.22168 24.749 -12.0693 47.252 -27.1992 65.1553zM166.554 267.445c-15.1162 -17.9014 -24.9482 -40.4004 -27.168 -65.1445h42.5049
c0.693359 17.6895 3.10254 34.4092 6.96875 49.6621c-7.88379 4.40039 -15.3584 9.57324 -22.3057 15.4824zM304.135 242.854c-11.8555 -4.35645 -24.3164 -7.08691 -37.0586 -8.0752v-32.4785h42.4727c-0.630859 14.4551 -2.54102 28.1064 -5.41406 40.5537z
M208.672 242.834c-2.87012 -12.4424 -4.77344 -26.0869 -5.4043 -40.5332h42.4316v32.4893c-12.7295 0.986328 -25.1826 3.69531 -37.0273 8.04395zM85.4678 202.28c5.89746 0 10.6836 -4.78613 10.6836 -10.6836s-4.78613 -10.6836 -10.6836 -10.6836v0
c-5.89746 0 -10.6836 4.78613 -10.6836 10.6836s4.78613 10.6836 10.6836 10.6836v0zM139.386 180.924c2.2207 -24.7568 12.0615 -47.2734 27.1885 -65.1855c6.94238 5.90625 14.4072 11.082 22.2852 15.4824c-3.86719 15.2646 -6.27539 32.0068 -6.96875 49.7031h-42.5049z
M203.268 180.924c0.631836 -14.46 2.54102 -28.127 5.41504 -40.585c11.8418 4.35156 24.2881 7.0752 37.0166 8.06543v32.5195h-42.4316zM267.076 180.924v-32.5098c12.7422 -0.984375 25.2031 -3.71191 37.0586 -8.06445c2.87207 12.4551 4.7832 26.1182 5.41406 40.5742
h-42.4727zM330.927 180.924c-0.693359 -17.6924 -3.10352 -34.4307 -6.96973 -49.6924c7.875 -4.39648 15.335 -9.57129 22.2744 -15.4727c15.127 17.9092 24.9775 40.417 27.1992 65.165h-42.5039zM245.699 126.984
c-10.6699 -0.980469 -21.0811 -3.43262 -30.9863 -7.20898c1.81934 -5 3.7627 -9.75781 5.90527 -14.043c7.52148 -15.043 16.3428 -24.5459 25.0811 -28.8789v50.1309zM267.076 126.984v-50.1406c8.75391 4.3291 17.5869 13.8379 25.1123 28.8887
c2.14453 4.28809 4.09473 9.0498 5.91602 14.0537c-9.91602 3.77734 -20.3477 6.22168 -31.0283 7.19824zM317.395 110.354c-1.88672 -4.9502 -3.88574 -9.75488 -6.11328 -14.21c-2.09473 -4.18848 -4.42969 -8.09473 -6.86523 -11.8516
c9.6084 4.2959 18.5439 9.81934 26.5732 16.4111c-4.31348 3.55176 -8.86035 6.7666 -13.5947 9.65039zM195.433 110.344c-4.74023 -2.8877 -9.28711 -6.10254 -13.6055 -9.66113c8.03125 -6.5918 16.9619 -12.1162 26.5732 -16.4111
c-2.4375 3.7627 -4.7666 7.67676 -6.86523 11.873c-2.22461 4.45117 -4.2168 9.25391 -6.10254 14.1992zM74.8047 31.3662c-11.9268 0 -21.377 -9.4502 -21.377 -21.3779c0 -11.9268 9.4502 -21.3672 21.377 -21.3672c11.9277 0 21.3252 9.44043 21.3252 21.3672
c0 11.9277 -9.39746 21.3779 -21.3252 21.3779zM438.012 31.3662c-11.9277 0 -21.3779 -9.4502 -21.3779 -21.3779c0 -11.9268 9.4502 -21.3672 21.3779 -21.3672c11.9268 0 21.3672 9.44043 21.3672 21.3672c0 11.9277 -9.44043 21.3779 -21.3672 21.3779z" />
    <glyph glyph-name="068-right-arrow-1" unicode="&#xf134;" 
d="M502.628 169.373l-113.378 -113.378c-6.24902 -6.24902 -14.4385 -9.37305 -22.6279 -9.37305c-8.19043 0 -16.3789 3.12402 -22.6279 9.37305c-12.4961 12.4971 -12.4961 32.7578 0 45.2549l58.751 58.75h-370.745c-17.6729 0 -32 14.3271 -32 32s14.3271 32 32 32
h370.745l-58.751 58.75c-12.4961 12.4971 -12.4961 32.7578 0 45.2549c12.498 12.4971 32.7578 12.4971 45.2559 0l113.378 -113.378c12.4961 -12.4961 12.4961 -32.7578 0 -45.2539z" />
    <glyph glyph-name="066-email" unicode="&#xf132;" 
d="M331.756 170.749l154.014 -154.517c-5.73047 -2.65234 -12.0498 -4.23242 -18.7695 -4.23242h-422c-6.71973 0 -13.041 1.58203 -18.7744 4.2334l154.017 154.516l42.8828 -43.0264c17.7646 -17.8252 48.3613 -17.4492 65.75 0zM467 372
c6.71973 0 13.0391 -1.58008 18.7695 -4.23242l-164.572 -165.124c-0.0117188 -0.0107422 -0.0351562 -0.0234375 -0.0351562 -0.0234375c-0.0107422 -0.0107422 -0.0244141 -0.0351562 -0.0244141 -0.0351562l-53.502 -53.6807
c-5.68359 -5.68457 -17.5859 -5.68457 -23.2695 0l-53.5137 53.6895s-0.00195312 0.015625 -0.0126953 0.0263672s-0.0234375 0.0126953 -0.0351562 0.0234375l-164.577 165.123c5.73145 2.65137 12.0527 4.2334 18.7725 4.2334h422zM4.78613 346.788l154.282 -154.793
l-154.283 -154.783c-2.9668 5.99805 -4.78516 12.6562 -4.78516 19.7881v270c0 7.13184 1.82031 13.79 4.78613 19.7881zM507.214 346.79c2.96582 -5.99805 4.78613 -12.6562 4.78613 -19.79v-270c0 -7.13379 -1.82031 -13.792 -4.78613 -19.79l-154.281 154.785z" />
    <glyph glyph-name="099-achievement" unicode="&#xf13d;" 
d="M295.219 322.406l62.0547 -9.01074c6.05078 -0.878906 10.9609 -6.55371 10.9609 -12.668c0 -2.99316 -1.74512 -7.1123 -3.89551 -9.19434l-44.8506 -43.7256l10.5977 -61.7979c0.105469 -0.600586 0.19043 -1.58203 0.19043 -2.19043
c0 -3.60938 -2.37891 -8.24805 -5.30957 -10.3535c-1.8584 -1.32812 -5.21973 -2.40625 -7.50391 -2.40625h-0.0224609c-0.0214844 -0.000976562 -0.0566406 -0.000976562 -0.078125 -0.000976562c-1.71484 0 -4.34082 0.642578 -5.86133 1.43457l-55.501 29.1836
l-55.501 -29.1836c-1.54785 -0.817383 -4.22461 -1.48047 -5.97559 -1.48047c-7.06543 0 -12.7998 5.73438 -12.7998 12.7998c0 0.610352 0.0849609 1.59473 0.19043 2.19727l10.5977 61.7979l-44.8506 43.7256c-2.15039 2.08203 -3.89551 6.20117 -3.89551 9.19434
c0 6.11426 4.91016 11.7891 10.9609 12.668l62.0547 9.01074l27.75 56.3203c1.94629 3.92773 7.08496 7.11621 11.4688 7.11621s9.52246 -3.18848 11.4688 -7.11621zM296.96 261.427l30.9756 30.3623l-43.0586 6.24609c-3.6748 0.540039 -7.98633 3.68262 -9.62598 7.01465
l-19.251 38.9629l-18.9951 -38.9629c-1.63965 -3.33203 -5.95117 -6.47461 -9.62598 -7.01465l-43.0586 -6.24609l30.7197 -30.3623c2.19824 -2.0957 3.9834 -6.2627 3.9834 -9.30078c0 -0.530273 -0.0644531 -1.38672 -0.143555 -1.91113l-7.32129 -42.8545l38.502 20.4795
c1.54004 0.806641 4.20117 1.46191 5.93945 1.46191s4.39941 -0.655273 5.93945 -1.46191l38.502 -20.4795l-7.11621 42.752c-0.102539 0.594727 -0.185547 1.56836 -0.185547 2.17188c0 2.96387 1.71191 7.06055 3.82031 9.14258zM256 435.2h0.121094
c95.3291 0 172.697 -77.3691 172.697 -172.697c0 -42.6562 -25.8135 -100.345 -57.6182 -128.769v-159.334v-0.0517578c0 -7.03711 -5.71191 -12.749 -12.749 -12.749h-0.0507812c-2.03027 0.00976562 -5.08105 0.881836 -6.80957 1.94629l-95.5908 59.4941
l-95.5908 -59.4941c-1.72949 -1.06445 -4.78125 -1.92773 -6.8125 -1.92773c-1.81836 0 -4.59277 0.703125 -6.19141 1.56934c-3.64648 2.00488 -6.60547 7.00977 -6.60547 11.1699v0.0429688v159.334c-31.8047 28.4238 -57.6182 86.1123 -57.6182 128.769
c0 95.3281 77.3682 172.697 172.697 172.697h0.121094zM345.6 -2.55957v117.248c-22.79 -13.8486 -62.9316 -25.0889 -89.5996 -25.0889s-66.8096 11.2402 -89.5996 25.0889v-117.248l82.79 51.8145c1.72363 1.08203 4.77441 1.96094 6.80957 1.96094
s5.08594 -0.878906 6.80957 -1.96094zM256 115.2c81.1416 0.112305 147.087 66.0576 147.2 147.2c0 81.2539 -65.9453 147.199 -147.2 147.199s-147.2 -65.9453 -147.2 -147.199c0 -81.2549 65.9453 -147.2 147.2 -147.2z" />
    </font>
</defs>
</svg>
