<?xml version="1.0" standalone="no"?>
<!DOCTYPE svg PUBLIC "-//W3C//DTD SVG 1.1//EN" "http://www.w3.org/Graphics/SVG/1.1/DTD/svg11.dtd" >
<!--
2018-7-31: Created with FontForge (http://fontforge.org)
-->
<svg xmlns="http://www.w3.org/2000/svg" xmlns:xlink="http://www.w3.org/1999/xlink" version="1.1">
<metadata>
Created by FontForge 20160405 at Tue Jul 31 17:34:53 2018
 By Apache
Copyright (c) 2018, Apache
</metadata>
<defs>
<font id="Flaticon" horiz-adv-x="512" >
  <font-face 
    font-family="Flaticon"
    font-weight="400"
    font-stretch="normal"
    units-per-em="512"
    panose-1="2 0 5 3 0 0 0 0 0 0"
    ascent="448"
    descent="-64"
    bbox="-0.00031586 -64.0015 512.001 448"
    underline-thickness="25.6"
    underline-position="-51.2"
    unicode-range="U+0020-F118"
  />
    <missing-glyph />
    <glyph glyph-name="space" unicode=" " horiz-adv-x="200" 
 />
    <glyph glyph-name="uniF107" unicode="&#xf107;" 
d="M256 347.061c73.5352 -0.572266 132.859 -60.3203 132.909 -133.857c-0.660156 -48.2432 -24.1318 -93.3213 -63.2764 -121.525v-96.6699c-0.0322266 -1.10547 -0.255859 -2.19727 -0.664062 -3.22559v-0.758789
c-0.164062 -0.391602 -0.354492 -0.772461 -0.569336 -1.13867l-33.3936 -49.7109c-1.7666 -2.61426 -4.71777 -4.17871 -7.87402 -4.17383h-55.2129c-3.15527 -0.00488281 -6.10645 1.55957 -7.87402 4.17383l-33.3936 49.7109
c-0.213867 0.366211 -0.405273 0.74707 -0.568359 1.13867v0.758789c-0.408203 1.02832 -0.632812 2.12012 -0.664062 3.22559v96.6699c-39.1436 28.2041 -62.6162 73.2822 -63.2773 121.525c0.0527344 73.9062 59.9521 133.806 133.858 133.857zM278.578 -45.3115
l20.5869 30.7373h-86.4248l20.6816 -30.7373h45.1562zM204.487 4.39941h103.121l-0.0957031 25.1396h-103.025v-25.1396zM311.877 104.675c36.4023 24.3271 58.4766 65.0322 59.0078 108.812c-1.74902 60.8613 -50.6758 109.788 -111.537 111.537
c-63.4229 1.82227 -116.314 -48.1143 -118.138 -111.537c0.625 -43.6777 22.6875 -84.2578 59.0078 -108.528c2.67871 -1.76367 4.28418 -4.76074 4.26953 -7.96875v-48.7617h103.121v48.1924c-0.015625 3.20801 1.58984 6.20605 4.26855 7.96875v0.285156zM259.795 304.086
c49.9092 -0.0517578 90.3564 -40.499 90.4082 -90.4092c0 -5.23828 -4.24707 -9.48633 -9.48633 -9.48633s-9.4873 4.24805 -9.4873 9.48633c-0.0517578 39.4307 -32.0039 71.3838 -71.4346 71.4355c-5.23926 0 -9.4873 4.24805 -9.4873 9.4873
c0 5.23828 4.24805 9.48633 9.4873 9.48633zM96.623 223.164c5.23828 0 9.48633 -4.24805 9.48633 -9.4873v0c0 -5.23828 -4.24805 -9.48633 -9.48633 -9.48633h-68.3047c-5.23926 0 -9.4873 4.24805 -9.4873 9.48633c0 5.23926 4.24805 9.4873 9.4873 9.4873h68.3047z
M483.682 223.164c5.23926 0 9.4873 -4.24805 9.4873 -9.4873c0 -5.23828 -4.24805 -9.48633 -9.4873 -9.48633h-68.3047c-5.23828 0 -9.48633 4.24805 -9.48633 9.48633c0 5.23926 4.24805 9.4873 9.48633 9.4873h68.3047zM150.974 107.521
c3.4082 -3.97949 2.94434 -9.96777 -1.03516 -13.376l-48.4775 -48.4775c-0.318359 -0.371094 -0.664062 -0.717773 -1.03516 -1.03516c-3.97949 -3.4082 -9.96875 -2.94434 -13.377 1.03516c-3.40723 3.97949 -2.94434 9.96777 1.03613 13.376l48.4766 48.667v-0.189453
c0.318359 0.371094 0.664062 0.717773 1.03516 1.03516c3.98047 3.4082 9.96875 2.94434 13.377 -1.03516zM422.88 381.593c3.98047 -3.4082 4.44336 -9.39648 1.03516 -13.376l-48.4766 -48.4775c-1.79102 -1.77539 -4.21484 -2.76562 -6.73633 -2.75098
l0.0957031 -0.0947266c-2.5498 -0.015625 -4.99707 0.996094 -6.79199 2.80566c-3.68848 3.71973 -3.66406 9.72754 0.0556641 13.416l48.4775 48.4775c3.55176 3.04199 8.79004 3.04199 12.3408 0zM425.798 57.1348c3.11328 -4.21289 2.22266 -10.1543 -1.99023 -13.2676
c-4.21289 -3.11426 -10.1543 -2.22363 -13.2686 1.98926l-48.4775 48.4775c-0.371094 0.317383 -0.716797 0.664062 -1.03516 1.03516c-3.4082 3.97949 -2.94434 9.96777 1.03516 13.376c3.98047 3.4082 9.96875 2.94434 13.377 -1.03516l48.4766 -48.667
c0.71582 -0.542969 1.34863 -1.18555 1.88281 -1.9082zM149.938 333.115c3.04102 -3.55176 3.04102 -8.78906 0 -12.3408c-3.4082 -3.97949 -9.39746 -4.44336 -13.377 -1.03516l-48.4766 48.4775c-3.04199 3.55078 -3.04199 8.78906 0 12.3408
c3.40723 3.97949 9.39648 4.44336 13.376 1.03516zM256 448c5.23926 0 9.48633 -4.24805 9.48633 -9.48633v-68.874c0 -5.23926 -4.24707 -9.4873 -9.48633 -9.4873c-0.0976562 0 -0.193359 0.00292969 -0.289062 0.00488281
c-5.2373 0.15625 -9.35547 4.53027 -9.19727 9.7666v68.5898c0 5.23828 4.24707 9.48633 9.48633 9.48633z" />
    <glyph glyph-name="uniF113" unicode="&#xf113;" 
d="M256 448c141.16 0 256 -114.842 256 -256s-114.842 -256 -256 -256s-256 114.842 -256 256s114.842 256 256 256zM256 -36.3242c125.898 0 228.324 102.426 228.324 228.324c0 35.2217 -8.02148 68.6035 -22.3262 98.4229
c-12.5732 26.209 -30.0117 49.6582 -51.1279 69.1836c-40.7285 37.6631 -95.1543 60.7178 -154.87 60.7178c-125.898 0 -228.324 -102.426 -228.324 -228.324c0 -38.1396 9.41406 -74.1182 26.0195 -105.754c10.9023 -20.7744 24.9043 -39.6768 41.3994 -56.0781
c41.3047 -41.0713 98.1914 -66.4922 160.905 -66.4922zM144.722 249.082c0 15.2852 12.3906 27.6758 27.6758 27.6758s27.6758 -12.3906 27.6758 -27.6758s-12.3906 -27.6758 -27.6758 -27.6758s-27.6758 12.3906 -27.6758 27.6758zM315.967 249.082
c0 15.2852 12.3916 27.6758 27.6768 27.6758c15.2842 0 27.6758 -12.3906 27.6758 -27.6758s-12.3916 -27.6758 -27.6758 -27.6758c-15.2852 0 -27.6768 12.3906 -27.6768 27.6758zM255.511 50.165c-5.95898 0 -11.9375 0.337891 -17.9238 1.02832
c-46.6348 5.37891 -89.75 32.2246 -115.333 71.8174l23.2441 15.0205c21.1426 -32.7178 56.7529 -54.9033 95.2607 -59.3438c49.4141 -5.70117 98.7627 17.5967 125.741 59.3438l23.2461 -15.0205c-29.3799 -45.4629 -80.6924 -72.8457 -134.235 -72.8457z" />
    <glyph glyph-name="uniF111" unicode="&#xf111;" 
d="M267.637 98.9092c0 6.42578 5.20996 11.6357 11.6367 11.6357c6.42578 0 11.6357 -5.20996 11.6357 -11.6357c0 -6.42676 -5.20996 -11.6357 -11.6357 -11.6357c-6.42676 0 -11.6367 5.20898 -11.6367 11.6357zM69.8193 29.0908
c0 6.42676 5.20898 11.6357 11.6357 11.6357s11.6357 -5.20898 11.6357 -11.6357c0 -6.42578 -5.20898 -11.6357 -11.6357 -11.6357s-11.6357 5.20996 -11.6357 11.6357zM477.091 401.455c19.7822 0 34.9092 -15.1279 34.9102 -34.9102v-279.271
c0 -19.7822 -15.127 -34.9092 -34.9092 -34.9092h-139.636v-34.9092c0 -6.98145 4.6543 -11.6357 11.6357 -11.6357h11.6357c6.98145 0 11.6367 -4.65527 11.6367 -11.6367c0 -6.98047 -4.6543 -11.6357 -11.6367 -11.6357h-162.908
c-6.98145 0 -11.6367 4.65527 -11.6367 11.6357c0 6.98145 4.6543 11.6367 11.6367 11.6367h11.6357c6.98047 0 11.6357 4.65332 11.6357 11.6357v34.9092h-23.2725c-6.98145 0 -11.6367 4.6543 -11.6367 11.6357s4.6543 11.6357 11.6367 11.6357h279.271
c6.98145 0 11.6357 4.6543 11.6357 11.6367v279.272c0 6.98145 -4.65332 11.6357 -11.6357 11.6357h-395.636c-6.98145 0 -11.6357 -4.65332 -11.6357 -11.6357v-116.363c0 -6.98047 -4.65527 -11.6357 -11.6367 -11.6357c-6.98047 0 -11.6357 4.6543 -11.6357 11.6357
v116.364c0 19.7822 15.127 34.9092 34.9092 34.9092h395.636zM242.036 5.81836h74.4717c-1.16309 3.49023 -2.32715 6.98047 -2.32715 11.6357v34.9092h-69.8174v-34.9092c0 -4.6543 -1.16309 -8.14551 -2.32715 -11.6357zM453.818 145.455
c6.98145 0 11.6357 -4.65527 11.6357 -11.6357c0 -6.98145 -4.6543 -11.6367 -11.6357 -11.6367h-256c-6.98145 0 -11.6367 4.65527 -11.6367 11.6367c0 6.98047 4.6543 11.6357 11.6367 11.6357h256zM128 215.273c19.7822 0 34.9092 -15.1289 34.9092 -34.9092v-162.909
c0 -19.7822 -15.127 -34.9092 -34.9092 -34.9092h-93.0908c-19.7822 0 -34.9092 15.127 -34.9092 34.9092v162.909c0 19.7803 15.127 34.9092 34.9092 34.9092h93.0908zM139.636 17.4551v162.909c0 6.98047 -4.65332 11.6357 -11.6357 11.6357h-93.0908
c-6.98145 0 -11.6357 -4.6543 -11.6357 -11.6357v-162.909c0 -6.98145 4.65332 -11.6357 11.6357 -11.6357h93.0908c6.98145 0 11.6357 4.65332 11.6357 11.6357z" />
    <glyph glyph-name="uniF10C" unicode="&#xf10c;" 
d="M440.43 421.023c34.5742 0 71.5703 -18.8281 71.5703 -71.5693v-247.302c0 -34.5742 -18.8281 -71.5703 -71.5703 -71.5703h-136.533v-45.584h26.8662c6.08105 0 11.0107 -4.93066 11.0107 -11.0107c0 -6.08105 -4.92969 -11.0107 -11.0107 -11.0107h-145.342
c-6.08008 0 -11.0107 4.92969 -11.0107 11.0107c0 6.08008 4.93066 11.0107 11.0107 11.0107h22.6826v45.584h-136.533c-34.5742 0 -71.5703 18.8291 -71.5703 71.5703v247.302c0 52.7412 36.9961 71.5693 71.5703 71.5693h368.859zM281.875 -15.002v45.584h-51.75v-45.584
h51.75zM489.979 102.152v15.7451h-467.957v-15.7451c0 -44.7041 34.6836 -49.5488 49.5488 -49.5488h368.859c44.7041 0 49.5488 34.6846 49.5488 49.5488zM489.979 139.809v209.205c0 44.7031 -34.6836 49.5479 -49.5488 49.5479h-368.859
c-14.8652 0 -49.5488 -4.84473 -49.5488 -49.5479v-209.205h467.957zM434.498 369.055c4.86133 -3.65332 5.84082 -10.5557 2.18848 -15.417l-90.8389 -121.889c-2.05664 -2.74219 -5.27148 -4.37012 -8.69824 -4.4043c-3.38965 0.203125 -6.55957 1.74805 -8.80859 4.29395
l-39.3086 51.0898l-64.083 -71.6797c-0.767578 -0.862305 -1.66602 -1.59863 -2.66309 -2.18164c-5.24902 -3.07031 -11.9932 -1.30664 -15.0635 3.94336l-44.043 75.8643l-66.0645 -107.686c-0.438477 -1.14551 -1.0625 -2.20898 -1.85156 -3.14746
c-3.91016 -4.6582 -10.8555 -5.26465 -15.5127 -1.35449s-5.26465 10.8555 -1.35449 15.5127l75.9746 122.77c2.00879 3.30176 5.60449 5.30762 9.46875 5.28516c3.84863 -0.0390625 7.39648 -2.08496 9.35938 -5.39453l46.0244 -78.6172l62.7627 71.3496
c2.16309 2.46387 5.31152 3.83691 8.58887 3.74414c3.29102 -0.107422 6.36133 -1.68359 8.36816 -4.29492l38.5371 -50.0986l82.1406 110.107h-0.550781c0.00292969 0.00585938 0.00683594 0.00976562 0.0117188 0.015625c3.65234 4.86133 10.5547 5.84082 15.416 2.18848z
" />
    <glyph glyph-name="uniF103" unicode="&#xf103;" 
d="M256.015 448c96.4727 0 174.959 -78.5 174.957 -174.988c0 -39.5195 -12.9531 -76.8369 -37.46 -107.915c-4.61328 -5.86133 -9.72656 -11.8613 -15.1406 -18.2158l-0.115234 -0.133789c-19.002 -22.3457 -40.54 -47.668 -48.3252 -75.7939
c-0.573242 -2.07617 -2.32129 -8.38086 -2.17871 -27.4297v-14.5635c0 -5.21875 -4.23145 -9.45117 -9.44922 -9.45117h-125.627c-5.21875 0 -9.44922 4.23242 -9.44922 9.45117v14.4932v0.104492c0.22168 20.1455 -1.5918 26.8057 -2.18945 28.9951
c-7.73145 28.3896 -28.1328 52.0547 -46.1328 72.9336l-0.969727 1.12988c-5.46875 6.3623 -10.6338 12.3682 -15.4727 18.5078c-24.4912 31.1006 -37.4336 68.4102 -37.4336 107.888c0 96.4883 78.498 174.988 174.986 174.988zM378.668 176.791
c21.8564 27.7168 33.4082 60.9873 33.4102 96.2207c0 86.0693 -70.0098 156.091 -156.062 156.091c-86.0693 0 -156.09 -70.0215 -156.09 -156.091c0 -35.1953 11.542 -68.459 33.3809 -96.1924c4.58594 -5.81934 9.62402 -11.6777 14.957 -17.8818l0.964844 -1.11914
c19.3008 -22.3916 41.1865 -47.7812 50.043 -80.2979c1.44336 -5.30273 3.07129 -13.9678 2.85352 -34.1191v-4.99316h106.729v5.0459c-0.143555 19.3701 1.56445 27.8525 2.86426 32.54c8.89746 32.1514 31.8711 59.1631 52.1406 82.9971l0.12207 0.140625
c5.2959 6.21777 10.2939 12.083 14.6855 17.6592zM318.303 10.5791c5.21777 0 9.44922 -4.22949 9.44922 -9.44727c0 -5.22168 -4.23145 -9.4502 -9.44922 -9.4502h-125.627c-5.21875 0 -9.44922 4.22852 -9.44922 9.4502c0 5.21777 4.23047 9.44727 9.44922 9.44727
h125.627zM318.303 -17.2627c5.21777 0 9.44922 -4.23047 9.44922 -9.4502c0 -5.21875 -4.23145 -9.44727 -9.44922 -9.44727h-125.627c-5.21875 0 -9.44922 4.22852 -9.44922 9.44727c0 5.21777 4.23047 9.4502 9.44922 9.4502h125.627zM286.896 -45.1025
c5.21875 0 9.44922 -4.22852 9.44922 -9.4502c0 -5.21777 -4.23047 -9.44727 -9.44922 -9.44727h-62.8115c-5.21777 0 -9.44922 4.22949 -9.44922 9.44727c0 5.22168 4.23145 9.4502 9.44922 9.4502h62.8115zM299.493 303.646c0 15.6904 -14.5928 28.8447 -34.0449 32.1201
v-65.6006c29.9346 -3.79199 52.9424 -25.3184 52.9424 -51.2256c0 -25.8906 -23.0078 -47.3994 -52.9424 -51.1895v-12.3428c0 -5.21875 -4.22949 -9.45117 -9.44922 -9.45117c-5.21777 0 -9.44824 4.23242 -9.44824 9.45117v12.3428
c-29.9336 3.79199 -52.9375 25.3008 -52.9375 51.1895c0 5.21875 4.23047 9.44727 9.44824 9.44727s9.44922 -4.22852 9.44922 -9.44727c0 -15.6797 14.5889 -28.8232 34.04 -32.0928v65.6094c-29.9336 3.79102 -52.9375 25.3037 -52.9375 51.1895
c0 25.8994 23.0039 47.4229 52.9375 51.2158v12.3174c0 5.22168 4.23047 9.4502 9.44824 9.4502c5.21973 0 9.44922 -4.22852 9.44922 -9.4502v-12.3174c29.9346 -3.79297 52.9424 -25.3164 52.9424 -51.2158c0 -5.21777 -4.23047 -9.44727 -9.4502 -9.44727
c-5.21875 0 -9.44727 4.22949 -9.44727 9.44727zM212.511 303.646c0 -15.6777 14.5889 -28.8203 34.04 -32.0947v64.2148c-19.4512 -3.27539 -34.04 -16.4277 -34.04 -32.1201zM299.493 218.942c0 15.6934 -14.5928 28.8535 -34.0449 32.1309v-64.2266
c19.4521 3.27246 34.0449 16.4141 34.0449 32.0957z" />
    <glyph glyph-name="uniF10F" unicode="&#xf10f;" 
d="M509.034 199.68c1.97461 -1.97461 2.96582 -4.24316 2.96582 -6.80469c0 -2.76758 -0.984375 -5.13379 -2.95996 -7.1084l-113.774 -104.896c-3.16113 -2.75977 -6.61719 -3.35938 -10.374 -1.77246c-3.74805 1.77246 -5.63281 4.63477 -5.63281 8.59082v66.3701
h-369.778c-2.7627 0 -5.03516 0.886719 -6.81543 2.66406c-1.77734 1.77441 -2.66504 4.04688 -2.66504 6.81055v56.8877c0 2.76465 0.891602 5.03711 2.66602 6.81445c1.77539 1.77734 4.04883 2.66504 6.81543 2.66504h369.774v66.3701
c0 4.15039 1.88281 7.0127 5.63281 8.5957c3.75293 1.58008 7.20898 1.08594 10.3701 -1.48145z" />
    <glyph glyph-name="uniF117" unicode="&#xf117;" 
d="M512 403.483l-211.483 -211.483l211.483 -211.483l-44.5166 -44.5166l-211.483 211.483l-211.483 -211.483l-44.5166 44.5166l211.483 211.483l-211.483 211.483l44.5166 44.5166l211.483 -211.483l211.483 211.483z" />
    <glyph glyph-name="uniF114" unicode="&#xf114;" 
d="M256 448c141.158 0 256 -114.842 256 -256s-114.842 -256 -256 -256s-256 114.842 -256 256s114.842 256 256 256zM388.805 184.951c2.3291 1.58789 3.72852 4.22461 3.72852 7.04883s-1.39941 5.46094 -3.7207 7.04883l-187.733 128
c-2.61914 1.77441 -5.99902 1.97949 -8.79785 0.495117c-2.79883 -1.47656 -4.54785 -4.37793 -4.54785 -7.54395v-256c0 -3.16602 1.74902 -6.06738 4.54785 -7.54395c1.24609 -0.665039 2.62012 -0.989258 3.98535 -0.989258c1.68066 0 3.3623 0.50293 4.80469 1.48438z
" />
    <glyph glyph-name="uniF106" unicode="&#xf106;" 
d="M510.615 186.406c2.53516 -4.27246 1.12695 -9.79102 -3.14648 -12.3271l-163.287 -92.4844c-1.34473 -0.762695 -2.86328 -1.16504 -4.4082 -1.16992c-1.68457 -0.00585938 -3.33691 0.461914 -4.76758 1.34961l-330.804 205.301
c-1.38672 0.879883 -2.50781 2.12109 -3.23828 3.5918c-2.21289 4.44922 -0.400391 9.84961 4.04785 12.0625l163.647 87.2666c2.7832 1.60645 6.21289 1.60645 8.99707 0l330.353 -200.443h-0.540039c1.2959 -0.768555 2.37793 -1.85059 3.14648 -3.14648zM340.313 99.5879
l144.935 82.498l-312.54 189.917l-145.475 -77.8203zM510.798 142.591c2.48438 -4.32227 0.994141 -9.84082 -3.3291 -12.3252l-163.287 -92.3945c-1.34473 -0.762695 -2.86328 -1.16504 -4.4082 -1.16895c-1.68457 -0.00585938 -3.33691 0.461914 -4.76758 1.34863
l-330.804 205.302c-4.22363 2.68262 -5.47168 8.28125 -2.78809 12.5049c2.68262 4.22363 8.28125 5.47266 12.5049 2.78906l326.484 -202.692l158.609 89.9658h-0.540039c4.32324 2.48438 9.84082 0.994141 12.3252 -3.3291zM508.879 99.1875
c3.10352 -3.88086 2.4707 -9.54199 -1.41016 -12.6445l-163.287 -92.5752c-1.34473 -0.761719 -2.86328 -1.16504 -4.4082 -1.16895c-1.68457 -0.00585938 -3.33691 0.461914 -4.76758 1.34961l-330.804 205.48c-4.22363 2.68359 -5.47168 8.28125 -2.78809 12.5049
c2.68262 4.22461 8.28125 5.47266 12.5049 2.78906l326.034 -202.781l159.06 89.9648c3.57617 1.18945 7.51367 0.0234375 9.86621 -2.91895zM307.782 284.158c3.11035 -3.87402 2.48926 -9.53711 -1.38574 -12.6475l-9.80664 -8.99707
c1.10938 -1.62402 2.12988 -3.30469 3.05957 -5.03809c2.0498 -3.79688 3.47754 -7.89648 4.22754 -12.1455c0.679688 -3.29395 0.679688 -6.69238 0 -9.98633c-0.598633 -2.5791 -1.94434 -4.92578 -3.86816 -6.74707
c-1.78613 -1.63086 -4.15332 -2.47363 -6.56738 -2.33887c-2.73926 0.358398 -5.22656 1.78125 -6.92773 3.95801c-1.52441 1.57715 -2.41992 3.65723 -2.51855 5.84766c-0.0498047 2.77734 0.191406 5.55176 0.719727 8.27734c0.436523 2.43945 0.436523 4.9375 0 7.37695
l-14.9346 -13.4043v-0.540039c3.03613 -5.41797 5.39355 -11.1895 7.01758 -17.1836c1.17871 -4.34277 1.33203 -8.90234 0.450195 -13.3145c-0.894531 -3.91211 -3.00391 -7.43945 -6.02832 -10.0762c-8.60254 -8.28906 -21.6318 -9.9375 -32.0273 -4.04883
c-4.08594 2.19629 -7.86621 4.91895 -11.2461 8.09668l-10.166 -8.99609c-1.66309 -1.46777 -3.80957 -2.26855 -6.02734 -2.24902l0.179688 0.269531c-2.60938 -0.0224609 -5.09863 1.08887 -6.8252 3.04492c-3.28613 3.72754 -2.92969 9.41309 0.797852 12.6992
l10.3457 8.99609c-2.2959 3.3418 -4.1416 6.97168 -5.48828 10.7959c-1.94629 5.10156 -2.50488 10.627 -1.61914 16.0137c0.675781 4.09082 2.66504 7.84863 5.66797 10.7061c1.80859 1.6543 4.21289 2.49902 6.65723 2.33984
c2.56445 -0.12207 4.9541 -1.33301 6.56738 -3.3291c1.42285 -1.41016 2.25977 -3.30664 2.33984 -5.30762c-0.0966797 -2.06445 -0.522461 -4.09863 -1.25977 -6.02832c-1.5625 -4.09766 -2.02734 -8.53223 -1.34961 -12.8652
c0.142578 -0.639648 0.322266 -1.27051 0.540039 -1.88867l17.9932 16.1035c-1.7793 3.68457 -3.3418 7.46973 -4.67871 11.3359c-1.63574 4.67383 -2.15918 9.66309 -1.5293 14.5742c0.733398 4.67188 3.12988 8.9209 6.74707 11.9658
c3.49512 3.11523 7.85742 5.09375 12.5059 5.66699c5.2627 0.611328 10.5908 -0.261719 15.3838 -2.51855c3.66992 -1.70801 7.06445 -3.95215 10.0762 -6.65723l9.62598 8.99609c0.223633 0.22168 0.458984 0.431641 0.704102 0.628906
c3.87402 3.11035 9.53809 2.48926 12.6475 -1.38574zM252.507 210.965c2.71387 2.14062 4.05664 5.58301 3.50879 8.99609c-0.364258 1.75 -0.875 3.46484 -1.5293 5.12793l-15.2041 -13.2246c1.53711 -1.0332 3.24219 -1.79492 5.03809 -2.24902
c2.78516 -0.911133 5.84082 -0.407227 8.18652 1.34961zM261.414 255.048l11.7852 10.9756c-0.832031 0.46875 -1.70605 0.860352 -2.60938 1.16992c-2.60645 0.954102 -5.52441 0.439453 -7.64648 -1.34961c-1.87402 -1.63086 -2.76074 -4.12012 -2.33984 -6.56738
c0.117188 -1.43555 0.388672 -2.85254 0.810547 -4.22852z" />
    <glyph glyph-name="uniF108" unicode="&#xf108;" 
d="M256 295.173c56.6094 0 91.7734 -29.0781 91.7734 -75.9307c0 -5.33496 -4.3252 -9.66016 -9.66016 -9.66016h-164.227c-5.33496 0 -9.66016 4.3252 -9.66016 9.66016c0 46.9492 35.1641 75.9307 91.7734 75.9307zM184.224 228.902h143.553
c-6.37598 43.375 -55.9336 46.9502 -71.7764 46.9502s-65.4004 -3.5752 -71.7764 -46.9502zM256 396.606c25.3428 0 45.8867 -20.5439 45.8867 -45.8867s-20.5439 -45.8867 -45.8867 -45.8867c-25.3213 0.0537109 -45.834 20.5664 -45.8867 45.8867
c0 25.3428 20.5439 45.8867 45.8867 45.8867zM256 324.154c14.6719 0 26.5664 11.8936 26.5664 26.5654s-11.8945 26.5664 -26.5664 26.5664s-26.5664 -11.8945 -26.5664 -26.5664s11.8945 -26.5654 26.5664 -26.5654zM91.7734 72.9844
c56.6104 0 91.7734 -29.0781 91.7734 -75.9307c0 -5.33496 -4.3252 -9.66016 -9.66016 -9.66016h-164.227c-5.33496 0 -9.66016 4.3252 -9.66016 9.66016c0 46.9492 35.1641 75.9307 91.7734 75.9307zM19.9971 6.71387h143.553
c-6.375 43.375 -55.8369 46.9492 -71.7764 46.9492s-65.4004 -3.57422 -71.7764 -46.9492zM91.7734 174.418c25.3428 0 45.8867 -20.5439 45.8867 -45.8867s-20.5439 -45.8867 -45.8867 -45.8867c-25.3213 0.0527344 -45.834 20.5654 -45.8867 45.8867
c0 25.3428 20.5439 45.8867 45.8867 45.8867zM91.7734 101.965c14.6719 0 26.5664 11.8945 26.5664 26.5664s-11.8945 26.5664 -26.5664 26.5664s-26.5654 -11.8945 -26.5654 -26.5664s11.8936 -26.5664 26.5654 -26.5664zM420.227 72.9844
c56.6094 0 91.7734 -29.0781 91.7734 -75.9307c0 -5.33496 -4.3252 -9.66016 -9.66016 -9.66016h-164.227c-5.33496 0 -9.66016 4.3252 -9.66016 9.66016c0 46.9492 35.1631 75.9307 91.7734 75.9307zM348.45 6.71387h143.553
c-6.37598 43.375 -55.8369 46.9492 -71.7764 46.9492s-65.4014 -3.57422 -71.7764 -46.9492zM420.227 174.418c25.3428 0 45.8867 -20.5439 45.8867 -45.8867s-20.5439 -45.8867 -45.8867 -45.8867c-25.3213 0.0527344 -45.834 20.5654 -45.8867 45.8867
c0 25.3428 20.5439 45.8867 45.8867 45.8867zM420.227 101.965c14.6719 0 26.5654 11.8945 26.5654 26.5664s-11.8936 26.5664 -26.5654 26.5664s-26.5664 -11.8945 -26.5664 -26.5664s11.8945 -26.5664 26.5664 -26.5664zM305.944 89.6963
c3.09766 -3.61621 3.09766 -8.9502 0 -12.5664c-3.4707 -4.05273 -9.56836 -4.52441 -13.6211 -1.05469l-36.3232 36.4199l-36.3232 -36.4199c-3.81445 -3.76172 -9.95605 -3.71777 -13.7178 0.0966797s-3.71777 9.95605 0.0966797 13.7178l40.2842 40.2842v56.9961
c0 5.33496 4.3252 9.66016 9.66016 9.66016s9.66016 -4.3252 9.66016 -9.66016v-56.9961z" />
    <glyph glyph-name="uniF116" unicode="&#xf116;" 
d="M244.202 146.335l-239.07 239.079c-3.41895 3.41797 -5.13184 7.34766 -5.13184 11.8008s1.70703 8.38281 5.13184 11.8008l25.6465 25.6562c3.41699 3.41992 7.35254 5.12695 11.7998 5.12695c4.44629 0 8.38086 -1.70703 11.8008 -5.12695l201.624 -201.625
l201.633 201.625c3.41699 3.41992 7.35254 5.12695 11.793 5.12695c4.45117 0 8.3877 -1.70703 11.8057 -5.12695l25.6494 -25.6562c3.40723 -3.41797 5.11621 -7.35547 5.11621 -11.8008s-1.69824 -8.38086 -5.11621 -11.8008l-239.09 -239.079
c-3.41602 -3.41895 -7.3457 -5.12305 -11.791 -5.12305c-4.44629 0 -8.38281 1.70605 -11.8008 5.12305zM481.234 237.663l25.6494 -25.6572c3.40723 -3.4248 5.11621 -7.35449 5.11621 -11.7998c0 -4.44238 -1.69824 -8.37793 -5.11621 -11.7969l-239.09 -239.076
c-3.41602 -3.41895 -7.3457 -5.12793 -11.791 -5.12793c-4.44629 0 -8.38281 1.70898 -11.8008 5.12793l-239.07 239.076c-3.41895 3.42285 -5.13184 7.36035 -5.13184 11.8057c0 4.44336 1.70703 8.37891 5.13184 11.7988l25.6465 25.6543
c3.41699 3.41992 7.35254 5.12695 11.7998 5.12695c4.44629 0 8.38086 -1.70703 11.8008 -5.12695l201.624 -201.629l201.633 201.624c3.41699 3.41895 7.35254 5.12695 11.793 5.12695c4.45117 0 8.3877 -1.70801 11.8057 -5.12695z" />
    <glyph glyph-name="uniF112" unicode="&#xf112;" 
d="M162.676 248.396c1.36523 -2.66992 1.2207 -5.86914 -0.375 -8.41406c-18.4395 -29.3271 -34.6084 -62.041 -48.0391 -97.2217c-1.48438 -3.89844 -5.5625 -6.13477 -9.6416 -5.32422l-25.0098 5l-42.9541 -32.21c-1.51855 -1.14355 -3.31934 -1.70605 -5.11914 -1.70605
c-1.81738 0 -3.64355 0.581055 -5.16211 1.74121c-3.03809 2.31152 -4.17285 6.34766 -2.78223 9.89746l51.751 132.257c1.35645 3.46387 4.7959 5.76758 8.51562 5.40039l71.7852 -4.78613c2.99512 -0.196289 5.66602 -1.9541 7.03125 -4.63379zM100.933 155.578
c11.4346 28.9512 24.6943 56.2383 39.541 81.3682l-51.5205 3.42969l-38.542 -98.501l22.0059 16.502c1.94531 1.4502 4.41992 2.0127 6.79199 1.54395zM321.819 19.8486c0.246094 -3.71094 -1.9375 -7.15918 -5.40137 -8.51465l-132.257 -51.75
c-1.02246 -0.375977 -2.07324 -0.572266 -3.11426 -0.572266c-2.61035 0 -5.14453 1.20312 -6.79199 3.37012c-2.31152 3.03809 -2.32031 7.23535 -0.0332031 10.291l32.21 42.9443l-5 25.0098c-0.819336 4.08691 1.43359 8.16602 5.32422 9.6416
c35.1797 13.4307 67.8857 29.5996 97.2207 48.0391c2.54199 1.60352 5.74219 1.74023 8.41309 0.375c2.67969 -1.36621 4.4375 -4.03613 4.64258 -7.04004zM205.868 -13.5742l98.501 38.542l-3.43945 51.5117c-25.1279 -14.8467 -52.4072 -28.1064 -81.3672 -39.54
l4.34375 -21.7158c0.477539 -2.38184 -0.0849609 -4.85547 -1.53613 -6.79199zM247.447 191.995c4.70996 0 8.5332 -3.82227 8.53223 -8.53223v-51.1982c0 -2.98535 -1.56152 -5.75098 -4.11328 -7.29492l-129.662 -78.4658
c-1.36523 -0.835938 -2.89258 -1.2373 -4.41113 -1.2373c-2.15137 0 -4.29199 0.819336 -5.92188 2.38965c-2.78223 2.67969 -3.41309 6.91113 -1.53613 10.291l72.1611 129.662c1.51074 2.70508 4.36133 4.38574 7.45801 4.38574h57.4932zM238.916 137.07v37.8604h-43.9521
v-0.00878906l-54.0801 -97.1797zM511.569 439.776c0.238281 -2.8252 19.8467 -283.814 -298.729 -405.448c-0.990234 -0.383789 -2.02148 -0.563477 -3.0459 -0.563477c-2.22656 0 -4.40332 0.870117 -6.0332 2.5l-40.5723 40.5732
c-1.83496 1.83496 -2.73926 4.40234 -2.44922 6.97949s1.73242 4.88086 3.9248 6.27246l74.252 46.8779v37.9619h-43.9268l-40.6494 -73.8076c-1.29688 -2.34668 -3.61816 -3.9502 -6.27246 -4.33496c-2.6709 -0.357422 -5.33301 0.512695 -7.23535 2.41504
l-40.5732 40.5732c-2.38086 2.38086 -3.13965 5.92969 -1.93652 9.07812c121.625 318.561 402.614 298.943 405.447 298.722c4.15527 -0.350586 7.44824 -3.64453 7.79883 -7.79883zM466.807 288.389c26.5273 65.6426 28.3535 122.521 28.0371 142.42
c-44.2412 0.623047 -271.825 -10.5215 -378.595 -282.9l28.6094 -28.6191l37.6035 68.2783c1.50195 2.72168 4.36133 4.41992 7.47559 4.41992h57.5098c4.70996 0 8.5332 -3.82324 8.5332 -8.5332v-51.1963c0 -2.92676 -1.50195 -5.64844 -3.97559 -7.21875
l-69.2002 -43.6875l29.0967 -29.0967c156.446 61.3418 224.963 162.054 254.905 236.134zM146.165 71.1299c9.72754 -12.876 12.9609 -29.4893 8.87402 -45.5732c-4.34277 -17.0908 -15.998 -31.0674 -31.9883 -38.3281l-110.985 -50.4531
c-1.13477 -0.512695 -2.33789 -0.768555 -3.53223 -0.768555c-2.21973 0 -4.40332 0.862305 -6.0332 2.5c-2.5166 2.50781 -3.20801 6.32324 -1.73242 9.56543l50.4453 110.984c7.26953 15.999 21.2461 27.6553 38.3369 31.998
c16.1016 4.07812 32.7061 0.84375 45.5732 -8.88281c2.44824 -1.85254 3.64355 -4.7959 3.34473 -7.69727c2.89258 0.306641 5.84473 -0.887695 7.69727 -3.34473zM138.503 29.7549c2.15918 8.5166 1.36426 17.21 -2.13281 24.7363l-14.3779 -8.13184
c-3.32812 -1.88672 -7.51855 -1.32324 -10.2314 1.39844c-2.71289 2.70508 -3.28516 6.89551 -1.39844 10.2314l8.12207 14.377c-4.73535 2.20996 -9.93164 3.3457 -15.2471 3.3457c-3.14062 0 -6.32227 -0.393555 -9.48828 -1.19531
c-12.04 -3.05371 -21.8867 -11.2627 -26.998 -22.5088l-41.0332 -90.2842l90.2764 41.0342c11.2461 5.11914 19.4531 14.957 22.5088 26.9971zM511.569 439.767c0.272461 -3.31836 6.2627 -82.4248 -36.5967 -175.448c-1.16895 -2.53418 -3.49805 -4.33496 -6.24609 -4.8291
c-0.50293 -0.0849609 -1.00684 -0.12793 -1.50977 -0.12793c-2.24414 0 -4.41992 0.886719 -6.0332 2.49902l-135.329 135.329c-1.9707 1.9707 -2.8584 4.78613 -2.36328 7.53418c0.494141 2.74805 2.2959 5.08594 4.8291 6.24609
c93.0234 42.8516 172.122 36.8613 175.45 36.5967c4.1543 -0.350586 7.44824 -3.64453 7.79883 -7.7998zM464.451 282.74c28.8232 68.2529 30.7432 127.7 30.4023 148.102c-20.3848 0.342773 -80.0195 -1.6377 -148.119 -30.3848zM376.837 312.844
c28.6963 -28.6953 28.6963 -75.3779 0 -104.073c-14.3516 -14.3438 -33.1914 -21.5195 -52.04 -21.5195c-18.8398 0 -37.6885 7.16797 -52.0322 21.5195c-28.6963 28.6953 -28.6963 75.377 0 104.073c28.6953 28.6953 75.377 28.6953 104.072 0zM364.772 220.836
c22.04 22.04 22.04 57.9023 0.000976562 79.9424c-11.0234 11.0156 -25.5039 16.5283 -39.9756 16.5283s-28.9521 -5.5127 -39.9678 -16.5283c-22.04 -22.04 -22.04 -57.9023 0 -79.9424c22.04 -22.0391 57.9023 -22.0391 79.9424 0zM341.76 243.84
c3.32812 3.33594 8.73633 3.33594 12.0645 0c3.33594 -3.33594 3.33594 -8.72852 0 -12.0645c-7.99414 -8.00391 -18.5068 -12.0059 -29.0273 -12.0059c-10.5117 0 -21.0332 4.00195 -29.0371 12.0059c-16.0078 16.0068 -16.0078 42.0576 0 58.0645
c16.0068 16.0068 42.0664 16.0068 58.0645 0c3.33594 -3.33594 3.33594 -8.72949 0 -12.0654c-3.32617 -3.33594 -8.73633 -3.33594 -12.0645 0c-9.36133 9.36035 -24.583 9.35254 -33.9346 0c-9.35254 -9.36035 -9.35254 -24.5742 0 -33.9346
c9.36035 -9.35938 24.583 -9.36914 33.9346 0z" />
    <glyph glyph-name="uniF115" unicode="&#xf115;" 
d="M256 448c102.244 0 185.425 -83.1816 185.427 -185.426c0 -126.889 -165.938 -313.167 -173.004 -321.035c-6.62402 -7.37793 -18.21 -7.39062 -24.8457 0c-7.06543 7.86816 -173.004 194.146 -173.004 321.035c0 102.244 83.1816 185.426 185.427 185.426zM256 169.281
c51.4414 0 93.291 41.8496 93.291 93.292c0 51.4414 -41.8496 93.293 -93.291 93.293s-93.292 -41.8506 -93.292 -93.292c0 -51.4424 41.8496 -93.293 93.292 -93.293z" />
    <glyph glyph-name="uniF109" unicode="&#xf109;" 
d="M412.862 174.536c0 -26.0391 -21.2285 -47.2686 -47.1631 -47.1641h-211.869l-59.7129 -69.124c-3.66016 -4.18262 -8.88867 -6.58789 -14.3262 -6.58789v0c-10.5625 0 -19.0332 8.4707 -19.0332 18.9277v56.6797h-13.4902c-26.0391 0 -47.2676 21.2295 -47.2676 47.2686
v188.026c0 26.0391 21.2285 47.2676 47.2676 47.2676h318.327c26.0391 0 47.2676 -21.2285 47.2676 -47.2676v-188.026zM147.869 152.889v0h217.726c11.9219 0 21.6475 9.72559 21.6475 21.6475v188.026c0 11.9209 -9.72559 21.6465 -21.6475 21.6465h-318.327
c-11.9209 0 -21.6465 -9.72559 -21.6465 -21.6465v-187.922c0 -11.9219 9.72559 -21.6475 21.6465 -21.6475h26.1445c7.11035 0 12.8623 -5.75098 12.8623 -12.8623v-51.5557l51.8691 59.9219c2.50977 2.82324 5.96094 4.3916 9.72559 4.3916zM417.987 -19.2422
l-59.8174 68.915h-186.562c-7.11035 0 -12.8623 5.75195 -12.8623 12.8633s5.75195 12.8623 12.8623 12.8623h192.419c3.76465 0 7.32031 -1.56836 9.72559 -4.3916l51.8691 -59.9219v51.5557c0 7.11133 5.75098 12.8623 12.8623 12.8623h26.249
c11.9209 0 21.6465 9.72559 21.6465 21.6475v188.026c0 11.9209 -9.72559 21.6465 -21.6465 21.6465c-7.11133 0 -12.8633 5.75195 -12.8633 12.8633c0 7.00586 5.75195 12.7578 12.8633 12.7578c26.0391 0 47.2676 -21.2285 47.2676 -47.2676v-188.026
c0 -26.0391 -21.2285 -47.2676 -47.2676 -47.2676h-13.4902v-56.6807c0 -8.05176 -4.81055 -14.9541 -12.3398 -17.7773c-2.19629 -0.836914 -4.49707 -1.25488 -6.69336 -1.25488c-5.33301 0 -10.5615 2.30078 -14.2217 6.58789zM191.163 264.053
c0 8.43164 6.83594 15.2676 15.2686 15.2676c8.43164 0 15.2676 -6.83594 15.2676 -15.2676c0 -8.43262 -6.83594 -15.2686 -15.2676 -15.2686c-8.43262 0 -15.2686 6.83594 -15.2686 15.2686zM242.301 264.053c0 8.43164 6.83594 15.2676 15.2676 15.2676
c8.43262 0 15.2686 -6.83594 15.2686 -15.2676c0 -8.43262 -6.83594 -15.2686 -15.2686 -15.2686c-8.43164 0 -15.2676 6.83594 -15.2676 15.2686zM140.026 264.053c0 8.43164 6.83594 15.2676 15.2676 15.2676c8.43262 0 15.2686 -6.83594 15.2686 -15.2676
c0 -8.43262 -6.83594 -15.2686 -15.2686 -15.2686c-8.43164 0 -15.2676 6.83594 -15.2676 15.2686z" />
    <glyph glyph-name="uniF10A" unicode="&#xf10a;" 
d="M422.034 243.528l89.9658 -51.0859l-89.9658 -51.4023l89.9658 -51.085l-255.995 -146.259l-256.005 146.259l89.9658 51.085l-89.9658 51.4023l89.9658 51.0859l-89.9658 51.4014l256.005 145.384l255.995 -145.384zM256.005 418.884l-218.354 -124l218.354 -124.756
l218.345 124.756zM108.776 232.785l-71.126 -40.3896l218.354 -124.755l218.345 124.755l-71.1172 40.3896l-147.228 -84.1143zM474.35 89.9082l-71.1172 40.3896l-147.228 -84.1143l-147.229 84.1143l-71.126 -40.3896l218.354 -124.755z" />
    <glyph glyph-name="uniF101" unicode="&#xf101;" 
d="M323.8 333.8h177.2v-347.2h-490v347.2h177.2v63.6006h135.6v-63.6006zM209.1 377.6v-93.7998h94.9004v93.7998h-94.9004zM480.1 6.40039h0.100586v306.5h-156.4v-50h-135.5v50h-156.399v-306.5h448.199zM159 140.9c-26 0 -46.9004 20.8994 -46.9004 46.8994
s20.9004 46.9004 46.9004 46.9004s46.9004 -20.7998 46.9004 -46.9004c-1 -26 -21.9004 -46.8994 -46.9004 -46.8994zM159 213.9c-14.5996 0 -26.0996 -11.5 -26.0996 -26.1006c0 -14.5996 11.5 -26.0996 26.0996 -26.0996s26.0996 11.5 26.0996 26.0996
c0 14.6006 -11.5 26.1006 -26.0996 26.1006zM158 127.4c52.0996 0 93.7998 -42.8008 93.9004 -93.8008h-20.9004c0 40.7002 -32.2998 73 -73 73s-73 -32.2998 -73 -73h-20.7998c0 51.1006 41.7002 93.8008 93.7998 93.8008zM306 146.1v20.9004h127.2v-20.9004h-127.2z
M306 76.2002v20.8994h127.2v-20.8994h-127.2z" />
    <glyph glyph-name="uniF102" unicode="&#xf102;" 
d="M422.607 411.325c4.71387 0.00488281 8.53711 -3.81348 8.54004 -8.52637v-262.297c0 -4.71289 -3.82031 -8.53418 -8.5332 -8.53418s-8.53418 3.82129 -8.53418 8.53418v252.1c-56.7725 -9.07812 -114.918 2.53223 -163.851 32.7188l-6.82715 4.16406l-6.82715 -4.17285
c-48.9385 -30.1719 -107.079 -41.7773 -163.851 -32.71v-252.101c-0.0253906 -30.6885 8.12891 -60.8291 23.6221 -87.3193c17.6807 -30.418 44.5791 -54.4238 76.8047 -68.5439l70.251 -30.79l70.2764 30.8154c3.76074 1.65039 7.44531 3.43066 11.0518 5.34277
c4.16406 2.20996 9.33203 0.626953 11.542 -3.53711c2.20996 -4.16504 0.626953 -9.33203 -3.53711 -11.543c-3.97754 -2.10742 -8.05664 -4.0791 -12.2041 -5.89648l-73.7148 -32.3174c-2.17676 -0.951172 -4.65137 -0.951172 -6.82715 0l-73.6904 32.3174
c-35.5195 15.5518 -65.1699 41.998 -84.665 75.5166c-17.0244 29.0986 -25.9922 62.208 -25.9766 95.9209v262.331c-0.000976562 0.583008 0.0566406 1.16406 0.172852 1.73438c0.941406 4.61816 5.44922 7.59766 10.0674 6.6543
c55.6084 -11.3975 113.47 -1.15527 161.785 28.6406l11.2568 6.91211c2.73828 1.67969 6.1875 1.67969 8.92578 0l11.2568 -6.91211c48.3115 -29.8076 106.173 -40.0625 161.785 -28.6748c0.55957 0.114258 1.12988 0.172852 1.7002 0.172852zM242.781 383.933
c2.20117 -4.16699 0.607422 -9.33008 -3.55957 -11.5312c-39.9023 -23.4043 -86.582 -32.5303 -132.36 -25.875v-193.77c0.0205078 -23.5645 6.56543 -46.6641 18.9111 -66.7354c14.4756 -23.5918 36.043 -42.002 61.6143 -52.5947
c4.34863 -1.82129 6.39648 -6.82227 4.57422 -11.1709c-1.82129 -4.34766 -6.82227 -6.39551 -11.1709 -4.57422c-28.874 11.9727 -53.2246 32.7686 -69.5684 59.4131c-13.9951 22.7568 -21.4121 48.9463 -21.4277 75.6621v203.874
c0 0.577148 0.0576172 1.15234 0.172852 1.71777c0.941406 4.61719 5.44922 7.59668 10.0674 6.6543c44.7627 -8.81348 91.2041 -0.948242 130.568 22.1113c0.209961 0.134766 0.426758 0.261719 0.647461 0.37793c4.16699 2.20215 9.33008 0.608398 11.5312 -3.55957z
M453.406 18.8066c3.55762 -3.0918 3.93555 -8.48145 0.84375 -12.0391l-40.8086 -40.8096c0.404297 -1.41895 0.619141 -2.88574 0.639648 -4.36035c0 -9.42676 -7.64062 -17.0684 -17.0674 -17.0684c-1.59961 -0.0136719 -3.19238 0.199219 -4.73047 0.632812
c-8.95801 2.52637 -14.1738 11.8379 -11.6465 20.7959l-74.9355 74.9443c-3.19434 3.30762 -3.19434 8.55078 0 11.8574c3.27344 3.38965 8.67676 3.4834 12.0664 0.209961l74.9443 -74.9443c2.8457 0.853516 5.87695 0.853516 8.72168 0l40.8096 40.8086
c3.21191 2.76367 7.96484 2.75098 11.1631 -0.0273438zM377.445 257.783c3.33105 -3.33301 3.33105 -8.73438 0 -12.0674l-145.076 -145.076c-1.60059 -1.59961 -3.76953 -2.5 -6.0332 -2.5s-4.43359 0.900391 -6.03418 2.5l-68.2705 68.2715
c-3.33105 3.33203 -3.33105 8.73438 0 12.0664l34.1357 34.1357c3.33203 3.33203 8.73438 3.33203 12.0664 0l28.1025 -28.1016l104.907 104.906c3.33203 3.33203 8.73438 3.33203 12.0664 0zM226.336 118.74l133.043 133.009l-22.1025 22.0693l-104.848 -104.907
c-3.33203 -3.33105 -8.73438 -3.33105 -12.0664 0l-28.1621 28.1016l-22.0342 -22.0684z" />
    <glyph glyph-name="uniF105" unicode="&#xf105;" 
d="M491.318 212.682c11.4229 0 20.6816 -9.25977 20.6816 -20.6816c0 -11.4229 -9.25879 -20.6816 -20.6816 -20.6816h-470.637c-11.4219 0 -20.6816 9.25879 -20.6816 20.6816s9.25977 20.6816 20.6816 20.6816h470.637zM491.318 369.561
c11.4229 0 20.6816 -9.25977 20.6816 -20.6816s-9.25879 -20.6816 -20.6816 -20.6816h-470.637c-11.4219 0 -20.6816 9.25977 -20.6816 20.6816s9.25977 20.6816 20.6816 20.6816h470.637zM491.318 55.8027c11.4229 0 20.6816 -9.25879 20.6816 -20.6816
s-9.25879 -20.6816 -20.6816 -20.6816h-470.637c-11.4219 0 -20.6816 9.25879 -20.6816 20.6816s9.25977 20.6816 20.6816 20.6816h470.637z" />
    <glyph glyph-name="uniF100" unicode="&#xf100;" 
d="M510.871 403.496c2.89746 -24.1475 -5.79492 -48.7783 -23.665 -66.1641l-74.8564 -75.3408v-253.065c0 -21.7334 -8.69336 -42.5 -24.1475 -57.9541l-10.625 -10.625c-2.89844 -2.89746 -6.76172 -4.34668 -10.625 -4.34668c-1.44922 0 -2.41504 0 -3.86426 0.483398
c-4.8291 1.44824 -8.69238 5.31152 -10.1416 10.1416l-54.5732 201.873l-47.3291 -46.3633l-2.89746 -85.4824c-0.966797 -9.6582 -4.34668 -17.3857 -10.1426 -23.1816l-8.69336 -8.69238c-3.37988 -3.86426 -7.72656 -5.3125 -12.5566 -4.83008
c-4.8291 0.483398 -9.17578 3.86426 -11.1074 8.69336l-43.4658 112.045l-108.181 41.0508c-4.34668 1.93164 -7.72754 5.3125 -9.17578 10.1416c-0.96582 4.8291 0.482422 10.1416 3.86328 13.5225l8.20996 8.20996c6.27832 6.76172 14.4883 10.1426 23.1816 10.1426
l84.999 2.89746l46.8467 46.8457l-201.391 55.0566c-4.8291 1.44922 -8.20996 5.3125 -9.65918 10.1426c-0.96582 4.8291 0.483398 10.624 3.86426 14.0049l10.625 10.625c15.4541 15.4541 36.2207 24.1475 57.4707 24.1475l253.066 -0.482422l77.2715 76.7891
c16.4209 16.4199 39.1191 25.1133 62.3008 24.1475l7.72754 -0.483398c19.3174 -1.44824 34.7725 -15.9375 36.7041 -34.7725zM473.684 350.854c13.5225 13.5225 19.8018 31.875 17.8691 50.71l-0.96582 9.17578c-0.96582 9.17578 -8.69238 16.9033 -18.3516 17.3867
l-7.72754 0.482422c-17.8691 0.96582 -35.2549 -5.79492 -47.8125 -18.3516l-80.1689 -79.6875c-1.93262 -1.93164 -4.34668 -2.89746 -6.76172 -2.89746l-256.93 0.483398c-16.4199 0 -32.3574 -6.76172 -43.9482 -18.3525l-4.83008 -4.8291l209.601 -57.4717
c3.38086 -0.96582 5.7959 -3.38086 6.76172 -6.76074c0.96582 -3.38086 0 -6.76172 -2.41504 -9.17676l-61.335 -61.334c-1.44824 -1.93262 -3.86328 -2.89844 -6.27832 -2.89844l-89.3457 -2.89746c-4.8291 0 -8.69336 -2.89746 -10.1416 -4.34668l-2.89746 -2.89746
l104.8 -40.085c2.89746 -0.96582 4.8291 -2.89746 5.7959 -5.3125l42.0166 -108.664l3.37988 3.38086c3.38086 2.89746 4.34668 7.24414 4.34668 10.1416l2.89844 88.8633c0 2.89746 0.96582 4.8291 2.89746 6.76172l61.8174 60.8516
c1.93164 1.93164 4.34668 2.89746 6.76172 2.89746c0.96582 0 1.44824 -0.482422 2.41406 -0.482422c3.38086 -0.966797 5.7959 -3.38086 6.76172 -6.76172l57.4707 -209.117l4.83008 4.8291c11.5908 12.0732 18.3516 27.5283 18.3516 44.4316v256.93
c0 2.41406 0.96582 4.8291 2.89844 6.76074z" />
    <glyph glyph-name="uniF10E" unicode="&#xf10e;" 
d="M344.774 366.591l161.812 -161.827c7.21875 -6.95898 7.21875 -18.5684 0 -25.543l-161.812 -161.812c-6.95801 -7.21875 -18.584 -7.21875 -25.8027 0c-6.97559 6.95898 -6.97559 18.584 0 25.8037l130.837 130.593h-431.745
c-10.0645 0 -18.0635 8.25977 -18.0635 18.3242s7.99902 18.0645 18.0635 18.0801h431.745l-130.837 130.838c-6.97559 6.95898 -6.97559 18.5674 0 25.543c7.21875 7.21875 18.8281 7.21875 25.8027 0z" />
    <glyph glyph-name="uniF110" unicode="&#xf110;" 
d="M397.736 369.622c-6.8252 0 -12.3594 5.5332 -12.3594 12.3584v38.9922c0 1.27441 -1.03027 2.31152 -2.29688 2.31152h-249.079v-75.3604c0 -14.8965 -12.1182 -27.0166 -27.0156 -27.0166h-75.3604v-357.88c0 -1.27441 1.03711 -2.31152 2.31055 -2.31152h349.146
c1.26562 0 2.29688 1.03711 2.29688 2.31152v188.684c0 6.8252 5.53418 12.3584 12.3584 12.3584s12.3574 -5.53418 12.3564 -12.3584v-188.684c0 -14.9023 -12.1172 -27.0273 -27.0137 -27.0273h-349.145c-14.9023 0 -27.0264 12.125 -27.0273 27.0283v370.238
c0 3.27734 1.30273 6.42188 3.62012 8.73828l102.375 102.375c2.31836 2.31738 5.46191 3.62012 8.73828 3.62012h261.439c14.8965 0 27.0137 -12.125 27.0137 -27.0273v-38.9922c0 -6.8252 -5.53418 -12.3584 -12.3574 -12.3584zM109.285 347.925v57.8789
l-60.1777 -60.1797h57.8779c1.26758 0 2.2998 1.03223 2.2998 2.30078zM492.865 347.604c16.3027 -16.3037 16.3027 -42.8311 0.000976562 -59.1338l-239.438 -239.435c-1.50684 -1.50684 -3.37891 -2.59961 -5.43262 -3.16895c0 0 -77.9316 -21.625 -77.9971 -21.6426
c-0.398438 -0.103516 -3.10645 -0.40918 -3.10742 -0.40918h-63.332c-6.82422 0 -12.3574 5.53223 -12.3574 12.3574s5.5332 12.3584 12.3574 12.3584h53.9365l19.0879 68.7471c0.571289 2.05371 1.66113 3.9248 3.16895 5.43262l0.199219 0.199219h-76.3926
c-6.82422 0 -12.3574 5.5332 -12.3574 12.3574c0 6.8252 5.5332 12.3584 12.3574 12.3584h101.109l74.3789 74.3789h-175.488c-6.82422 0 -12.3574 5.5332 -12.3574 12.3584c0 6.82422 5.5332 12.3574 12.3574 12.3574h200.204l115.423 115.423
c16.3066 16.3027 42.834 16.3047 59.1387 0zM184.644 53.9268l36.3271 10.0859l-26.2393 26.2402zM244.69 75.248l197.648 197.648l-38.7217 38.7207l-197.648 -197.648zM475.387 305.946c6.66699 6.66602 6.66699 17.5137 0 24.1807l-14.541 14.541
c-6.66406 6.66699 -17.5117 6.66797 -24.1807 0l-15.5713 -15.5713l38.7227 -38.7217z" />
    <glyph glyph-name="uniF104" unicode="&#xf104;" 
d="M332.066 448l124.467 -124.467v-387.533h-401.066v512h276.6zM337.066 418.867v-90.334h90.334zM72.5332 -46.9336h366.934v358.4h-119.467v119.467h-247.467v-477.867zM362.667 268.8c4.70996 0 8.5332 -3.81445 8.5332 -8.5332s-3.82324 -8.5332 -8.5332 -8.5332
h-136.533c-4.71094 0 -8.53418 3.81445 -8.53418 8.5332s3.82324 8.5332 8.53418 8.5332h136.533zM195.2 292.531c3.67773 2.94434 9.05371 2.35547 11.9893 -1.33105c2.94434 -3.67773 2.35547 -9.0459 -1.33105 -11.998l-42.667 -34.1338
c-1.56152 -1.25391 -3.44727 -1.86816 -5.3252 -1.86816c-2.19238 0 -4.37695 0.844727 -6.03223 2.5l-17.0674 17.0664c-3.33594 3.33691 -3.33594 8.72949 0 12.0664c3.33691 3.33691 8.72949 3.33691 12.0664 0l11.665 -11.665zM362.667 174.934
c4.70996 0 8.5332 -3.81445 8.5332 -8.5332c0 -4.71973 -3.82324 -8.53418 -8.5332 -8.53418h-136.533c-4.71094 0 -8.53418 3.81445 -8.53418 8.53418c0 4.71875 3.82324 8.5332 8.53418 8.5332h136.533zM195.2 198.664c3.67773 2.94434 9.05371 2.35547 11.9893 -1.33105
c2.94434 -3.67773 2.35547 -9.04492 -1.33105 -11.9971l-42.667 -34.1338c-1.56152 -1.25488 -3.44727 -1.86914 -5.3252 -1.86914c-2.19238 0 -4.37695 0.844727 -6.03223 2.50098l-17.0674 17.0664c-3.33594 3.33594 -3.33594 8.72949 0 12.0664
c3.33691 3.33594 8.72949 3.33594 12.0664 0l11.665 -11.665zM362.667 81.0664c4.70996 0 8.5332 -3.81445 8.5332 -8.5332s-3.82324 -8.5332 -8.5332 -8.5332h-136.533c-4.71094 0 -8.53418 3.81445 -8.53418 8.5332s3.82324 8.5332 8.53418 8.5332h136.533zM195.2 104.798
c3.67773 2.94434 9.05371 2.35547 11.9893 -1.33105c2.94434 -3.67773 2.35547 -9.0459 -1.33105 -11.998l-42.667 -34.1328c-1.56152 -1.25488 -3.44727 -1.86914 -5.3252 -1.86914c-2.19238 0 -4.37695 0.844727 -6.03223 2.5l-17.0674 17.0664
c-3.33594 3.33691 -3.33594 8.73047 0 12.0664c3.33691 3.33691 8.72949 3.33691 12.0664 0l11.665 -11.665z" />
    <glyph glyph-name="uniF10D" unicode="&#xf10d;" 
d="M423.649 288.563c-1.86621 -1.84961 -4.39258 -2.88184 -7.01953 -2.86719h-9.88672c52.4863 -76.1914 52.4863 -176.876 0 -253.066c-69.8828 -101.442 -208.77 -127.027 -310.212 -57.1445c-101.443 69.8818 -127.028 208.77 -57.1455 310.211
c69.8828 101.442 208.769 127.028 310.212 57.1455v9.88672c-0.0966797 2.72949 0.941406 5.37793 2.86719 7.31543l85.3223 84.9268c1.77441 1.79395 4.16992 2.83887 6.69141 2.92383c5.45801 0.18457 10.0303 -4.08984 10.2148 -9.54785l1.58203 -46.4668
l46.4668 -1.58203l-0.296875 0.592773c2.52246 -0.0839844 4.91699 -1.13086 6.69238 -2.92383c3.84277 -3.88086 3.81152 -10.1396 -0.0673828 -13.9824zM426.615 159.048c-0.167969 46.2549 -16.1055 91.0703 -45.1826 127.044l-16.3125 0.59375l-39.5469 -39.5469
c43.5791 -51.1689 43.0439 -126.553 -1.25586 -177.099c-49.3057 -56.2568 -134.881 -61.8916 -191.138 -12.5859s-61.8916 134.882 -12.5859 191.138c49.3066 56.2568 134.882 61.8916 191.138 12.5859l39.5469 39.5469l-0.494141 16.5107
c-36.2344 29.1865 -81.377 45.0742 -127.905 45.0127c-112.372 -0.148438 -203.348 -91.3643 -203.199 -203.736s91.3633 -203.348 203.735 -203.199s203.349 91.3643 203.2 203.735zM216.819 152.424c-3.83301 3.85645 -3.83301 10.085 0 13.9404l19.7734 19.7734
c-3.97656 1.92676 -8.33398 2.94043 -12.7539 2.96582c-16.3809 0 -29.6592 -13.2783 -29.6592 -29.6602c0 -16.3809 13.2783 -29.6592 29.6592 -29.6592c16.3818 0 29.6602 13.2783 29.6602 29.6592c-0.0253906 4.41992 -1.03906 8.77734 -2.96582 12.7539
l-19.7734 -19.7734c-3.85547 -3.83301 -10.084 -3.83301 -13.9404 0zM251.027 200.671l46.8633 46.8633c-42.9854 36.2002 -105.787 36.2002 -148.772 0c-48.7812 -41.083 -55.0234 -113.932 -13.9404 -162.713c41.083 -48.7803 113.932 -55.0225 162.713 -13.9395
c48.7803 41.082 55.0225 113.932 13.9404 162.712l-46.8633 -46.8623c10.9473 -16.541 10.9473 -38.0234 0 -54.5654c-15.0674 -22.7656 -45.7383 -29.0068 -68.5049 -13.9395s-29.0078 45.7383 -13.9404 68.5049s45.7383 29.0068 68.5049 13.9395zM371.25 306.854
l42.1172 -1.38477l66.6357 65.8457l-32.9229 1.08691c-5.45996 0 -9.88672 4.42676 -9.88672 9.88672l-1.08691 32.9229l-66.2412 -66.2402z" />
    <glyph glyph-name="uniF118" unicode="&#xf118;" 
d="M177.233 408.613c16.4082 0 30.3594 -5.74316 41.8447 -17.2285c11.4844 -11.4854 17.2285 -25.4316 17.2285 -41.8457v-216.611c0 -21.332 -4.1543 -41.6904 -12.46 -61.0752c-8.30664 -19.3857 -19.5391 -36.1504 -33.6904 -50.3066
c-14.1543 -14.1543 -30.9229 -25.3887 -50.3076 -33.6943c-19.3857 -8.30469 -39.7441 -12.4648 -61.0801 -12.4648h-19.6904c-5.33789 0 -9.94727 1.95508 -13.8496 5.84863c-3.89648 3.89648 -5.8457 8.52148 -5.8457 13.8467v39.3896
c0 5.33301 1.94922 9.9502 5.8457 13.8447c3.89844 3.89551 8.5127 5.84863 13.8496 5.84863h19.6895c21.7471 0 40.3096 7.69336 55.6934 23.0732c15.3838 15.3877 23.0771 33.9453 23.0771 55.6904v9.84082c0 8.20898 -2.87109 15.1865 -8.61523 20.9258
c-5.74414 5.74219 -12.7197 8.61523 -20.9219 8.61523h-68.9229c-16.4092 0 -30.3613 5.74609 -41.8496 17.2305c-11.4873 11.4844 -17.2285 25.4307 -17.2285 41.8428v118.151c0 16.4131 5.74414 30.3613 17.2285 41.8486c11.4893 11.4854 25.4365 17.2295 41.8496 17.2295
h118.155zM494.765 391.384c11.4922 -11.4844 17.2314 -25.4307 17.2344 -41.8447v-216.611c0 -21.332 -4.15723 -41.6943 -12.4619 -61.0752c-8.30176 -19.3809 -19.54 -36.1504 -33.6943 -50.3066c-14.1553 -14.1543 -30.9219 -25.3887 -50.3027 -33.6943
c-19.3887 -8.30469 -39.7461 -12.4648 -61.0781 -12.4648h-19.6943c-5.33398 0 -9.95117 1.95508 -13.8457 5.84863c-3.89746 3.89648 -5.84961 8.52148 -5.84961 13.8467v39.3896c0 5.33301 1.95215 9.9502 5.84961 13.8447
c3.89551 3.89551 8.51367 5.84863 13.8457 5.84863h19.6943c21.749 0 40.3066 7.69336 55.6904 23.0732c15.3867 15.3877 23.0801 33.9453 23.0801 55.6904v9.84082c0 8.20898 -2.87793 15.1836 -8.61523 20.9258c-5.74316 5.74219 -12.7246 8.61523 -20.9268 8.61523
h-68.9229c-16.4111 0 -30.3604 5.74609 -41.8457 17.2305c-11.4834 11.4844 -17.2256 25.4307 -17.2256 41.8428v118.151c0 16.4131 5.74219 30.3604 17.2256 41.8486c11.4854 11.4854 25.4336 17.2295 41.8457 17.2295h118.151
c16.4121 0 30.3613 -5.74414 41.8457 -17.2295z" />
    <glyph glyph-name="uniF10B" unicode="&#xf10b;" 
d="M503.467 234.667c4.70996 0 8.5332 -3.82324 8.53223 -8.5332v-68.2666c0 -4.70996 -3.82324 -8.5332 -8.5332 -8.5332h-29.8672c-9.82129 0 -18.5254 -6.26367 -21.1631 -15.2412c-4.07031 -13.8232 -9.62598 -27.2549 -16.5371 -39.9268
c-4.50684 -8.27734 -2.81641 -18.9014 4.1123 -25.8389l21.1377 -21.1367c3.33594 -3.33691 3.33594 -8.72949 0 -12.0664l-48.2734 -48.2734c-3.33594 -3.33691 -8.72852 -3.33691 -12.0664 0l-21.1367 21.1377c-6.9375 6.9375 -17.5615 8.60938 -25.8389 4.1123
c-12.6719 -6.91113 -26.1123 -12.4678 -39.9268 -16.5371c-8.97754 -2.6377 -15.2402 -11.3418 -15.2402 -21.1631v-29.8682c0 -4.70996 -3.82324 -8.5332 -8.5332 -8.5332h-68.2666c-4.70996 0 -8.5332 3.82324 -8.5332 8.5332v29.8672
c0 9.82129 -6.26367 18.5254 -15.2412 21.1621c-13.8242 4.07129 -27.2549 9.62695 -39.9268 16.5381c-8.27734 4.50684 -18.9014 2.8252 -25.8389 -4.1123l-21.1367 -21.1377c-3.33691 -3.33594 -8.72949 -3.33594 -12.0664 0l-48.2734 48.2734
c-3.33691 3.33594 -3.33691 8.72852 0 12.0664l21.1387 21.1387c6.92871 6.9375 8.62695 17.5615 4.1123 25.8389c-6.91113 12.6719 -12.4678 26.1123 -16.5371 39.9268c-2.6377 8.97754 -11.3418 15.2402 -21.1631 15.2402h-29.8672
c-4.70996 0 -8.5332 3.82324 -8.5332 8.5332v68.2666c0 4.70996 3.82324 8.5332 8.5332 8.5332h29.8662c9.82129 0 18.5254 6.26367 21.1621 15.2412c4.07129 13.832 9.62695 27.2637 16.5381 39.9268c4.50684 8.27734 2.81641 18.9014 -4.1123 25.8389l-21.1377 21.1367
c-3.33691 3.33691 -3.33691 8.72949 0 12.0664l48.2734 48.2734c3.33594 3.33691 8.72852 3.33691 12.0664 0l21.1377 -21.1387c6.94629 -6.92871 17.5703 -8.62695 25.8389 -4.1123c12.6719 6.91113 26.1123 12.4678 39.9268 16.5371
c8.97852 2.6377 15.2412 11.3418 15.2412 21.1631v29.8672c0 4.70996 3.82324 8.5332 8.5332 8.5332h68.2666c4.70996 0 8.5332 -3.82324 8.5332 -8.5332v-29.8662c0 -9.82129 6.26367 -18.5254 15.2412 -21.1621c13.8232 -4.07129 27.2549 -9.62695 39.9268 -16.5381
c8.27734 -4.49707 18.8926 -2.81641 25.8389 4.1123l21.1367 21.1377c3.33691 3.33691 8.72949 3.33691 12.0664 0l48.2725 -48.2734c3.33691 -3.33594 3.33691 -8.72852 0 -12.0664l-21.1377 -21.1367c-6.92871 -6.9375 -8.62695 -17.5615 -4.1123 -25.8389
c6.90332 -12.6631 12.4678 -26.1025 16.5371 -39.9268c2.6377 -8.97852 11.3418 -15.2412 21.1631 -15.2412h29.8672zM494.933 166.4h-0.000976562v51.2002h-21.333c-17.3398 0 -32.7754 11.3066 -37.5381 27.4941c-3.72852 12.6719 -8.82227 24.9775 -15.1377 36.582
c-8.10645 14.873 -5.21387 33.8174 7.03125 46.0713l15.1035 15.1035l-36.207 36.1982l-15.1035 -15.1035c-12.2529 -12.2529 -31.2061 -15.1387 -46.0713 -7.03125c-11.6123 6.32324 -23.9189 11.417 -36.582 15.1377c-16.1865 4.77148 -27.4941 20.207 -27.4941 37.5469
v21.333h-51.1992v-21.333c0 -17.3398 -11.3076 -32.7764 -27.4951 -37.5391c-12.6631 -3.71973 -24.9688 -8.81445 -36.582 -15.1377c-14.873 -8.10645 -33.8174 -5.21387 -46.0713 7.03125l-15.1035 15.1035l-36.1982 -36.207l15.1035 -15.1035
c12.2529 -12.2529 15.1387 -31.1973 7.03125 -46.0713c-6.32324 -11.6045 -11.417 -23.9102 -15.1377 -36.582c-4.77148 -16.1865 -20.207 -27.4941 -37.5469 -27.4941h-21.333v-51.1992h21.333c17.3398 0 32.7764 -11.3076 37.5391 -27.4951
c3.71973 -12.6631 8.81445 -24.9688 15.1377 -36.582c8.10645 -14.873 5.21387 -33.8174 -7.03125 -46.0713l-15.1035 -15.1035l36.207 -36.207l15.1035 15.1035c12.2529 12.2529 31.1973 15.1377 46.0713 7.03125c11.6123 -6.32324 23.918 -11.417 36.582 -15.1377
c16.1865 -4.76172 27.4941 -20.1982 27.4941 -37.5381v-21.333h51.1992v21.333c0 17.3398 11.3076 32.7764 27.4951 37.5391c12.6631 3.71973 24.9688 8.81445 36.582 15.1377c14.873 8.10645 33.8174 5.21387 46.0713 -7.03125l15.1035 -15.1035l36.207 36.207
l-15.1035 15.1035c-12.2529 12.2529 -15.1377 31.1973 -7.03125 46.0713c6.32324 11.6123 11.417 23.9189 15.1377 36.582c4.76172 16.1865 20.1982 27.4941 37.5381 27.4941h21.333zM256 328.533c75.2812 0 136.533 -61.252 136.533 -136.533
s-61.252 -136.533 -136.533 -136.533s-136.533 61.252 -136.533 136.533s61.252 136.533 136.533 136.533zM256 72.5332c65.877 0 119.467 53.5898 119.467 119.467s-53.5898 119.467 -119.467 119.467s-119.467 -53.5889 -119.467 -119.467
s53.5898 -119.467 119.467 -119.467zM182.733 192l28.0996 -28.0996c3.33691 -3.33594 3.33691 -8.72949 0 -12.0664c-1.66406 -1.66406 -3.84766 -2.5 -6.0332 -2.5c-2.18359 0 -4.36914 0.835938 -6.0332 2.5l-34.1328 34.1328
c-3.33691 3.33594 -3.33691 8.73047 0 12.0664l34.1328 34.1328c3.33594 3.33691 8.72949 3.33594 12.0664 0s3.33691 -8.72949 0 -12.0664zM347.366 198.033c3.33691 -3.33594 3.33691 -8.73047 0 -12.0664l-34.1328 -34.1328
c-1.66406 -1.66406 -3.84863 -2.5 -6.0332 -2.5s-4.36914 0.835938 -6.0332 2.5c-3.33594 3.33594 -3.33594 8.72949 0 12.0664l28.0996 28.0996l-28.0996 28.0996c-3.33594 3.33594 -3.33594 8.72949 0 12.0664s8.72949 3.33691 12.0664 0zM275.576 259.9
c4.50488 -1.38379 7.03125 -6.16113 5.64844 -10.667l-34.1328 -110.934c-1.12695 -3.67773 -4.50586 -6.0332 -8.1582 -6.0332c-0.835938 0 -1.68066 0.12793 -2.50879 0.384766c-4.50586 1.38281 -7.03125 6.16016 -5.64844 10.667l34.1328 110.933
c1.38281 4.51367 6.18652 7.04785 10.667 5.64941z" />
  </font>
</defs>
</svg>
